<?xml version="1.0" standalone="no"?>
<!DOCTYPE svg PUBLIC "-//W3C//DTD SVG 1.1//EN" "http://www.w3.org/Graphics/SVG/1.1/DTD/svg11.dtd" >
<!--
2013-9-30: Created.
-->
<svg>
<metadata>
Created by iconfont
</metadata>
<defs>

<font id="iconfont" horiz-adv-x="1024" >
  <font-face
    font-family="iconfont"
    font-weight="500"
    font-stretch="normal"
    units-per-em="1024"
    ascent="896"
    descent="-128"
  />
    <missing-glyph />
    
    <glyph glyph-name="kehuguanli" unicode="&#58985;" d="M394.783236 790.068966C280.082314 790.068966 187.552032 694.612074 187.552032 577.400126 187.552032 460.188178 280.082314 364.731268 394.783236 364.731268 509.484159 364.731268 602.014439 460.188178 602.014439 577.400126 602.014439 694.612074 509.484159 790.068966 394.783236 790.068966ZM394.783236 435.351958C319.585621 435.351958 258.172721 498.707279 258.172721 577.400126 258.172721 656.092954 319.585621 719.448276 394.783236 719.448276 469.98085 719.448276 531.39375 656.092954 531.39375 577.400126 531.39375 498.707279 469.98085 435.351958 394.783236 435.351958ZM0.101278 19.470495C-1.438149-1.015596 14.768493-18.485778 35.312349-18.485778L754.254124-18.485778C774.798703-18.485778 791.005599-1.014413 789.465056 19.472331 776.020697 198.260807 655.670194 338.610953 506.940889 338.610953L282.626382 338.610953C133.82161 338.610953 13.538423 198.286777 0.101278 19.470495ZM506.940889 267.990263C614.775001 267.990263 708.145092 159.104088 719.04319 14.176803L754.254124 52.134912 35.312349 52.134912 70.523419 14.178639C81.416207 159.135603 174.724337 267.990263 282.626382 267.990263L506.940889 267.990263ZM988.691659 630.652698C1008.193024 630.652698 1024.002004 646.46167 1024.002004 665.963043 1024.002004 685.464399 1008.193024 701.273388 988.691659 701.273388L730.81037 701.273388C711.309005 701.273388 695.500025 685.464399 695.500025 665.963043 695.500025 646.46167 711.309005 630.652698 730.81037 630.652698L988.691659 630.652698ZM988.691659 436.445802C1008.193024 436.445802 1024.002004 452.254773 1024.002004 471.756147 1024.002004 491.257503 1008.193024 507.066492 988.691659 507.066492L715.181201 507.066492C695.679836 507.066492 679.870856 491.257503 679.870856 471.756147 679.870856 452.254773 695.679836 436.445802 715.181201 436.445802L988.691659 436.445802ZM988.691659 242.238905C1008.193024 242.238905 1024.002004 258.047876 1024.002004 277.54925 1024.002004 297.050606 1008.193024 312.859595 988.691659 312.859595L777.697877 312.859595C758.196512 312.859595 742.387532 297.050606 742.387532 277.54925 742.387532 258.047876 758.196512 242.238905 777.697877 242.238905L988.691659 242.238905Z"  horiz-adv-x="1024" />

    
    <glyph glyph-name="scsxx" unicode="&#58928;" d="M571.733333 550.4V738.133333c0 17.066667-17.066667 29.866667-34.133333 29.866667-4.266667 0-8.533333 0-12.8-4.266667l-341.333333-153.6v-558.933333h482.133333c17.066667 0 34.133333 12.8 34.133333 29.866667 0 17.066667-12.8 29.866667-34.133333 29.866666h-93.866667V482.133333l260.266667-81.066666v-320c0-17.066667 12.8-29.866667 34.133333-29.866667 17.066667 0 34.133333 12.8 34.133334 29.866667v366.933333l-328.533334 102.4zM247.466667 110.933333V571.733333l260.266666 119.466667v-576H247.466667z"  horiz-adv-x="1024" />

    
    <glyph glyph-name="shebeizhuce" unicode="&#59048;" d="M261.260482-51.130063c-18.366077 0-33.326523 14.960447-33.326523 33.204894V785.925169c0 18.366077 14.960447 33.326523 33.326523 33.326524h501.114147c18.366077 0 33.326523-14.960447 33.326523-33.326524v-803.850338c0-18.366077-14.960447-33.204894-33.326523-33.204894h-501.114147zM762.374629 800.277468c7.784297 0 14.352298-6.568001 14.352298-14.352299v-803.850338c0-7.784297-6.568001-14.352298-14.352298-14.352299h-501.114147c-7.784297 0-14.352298 6.568001-14.352298 14.352299V785.925169c0 7.784297 6.568001 14.352298 14.352298 14.352299h501.114147m0 37.82682h-501.114147c-28.704597 0-52.179119-23.474522-52.179118-52.179119v-803.850338c0-28.704597 23.474522-52.179119 52.179118-52.179119h501.114147c28.704597 0 52.179119 23.474522 52.179118 52.179119V785.925169c0 28.704597-23.474522 52.179119-52.179118 52.179119zM776.483668 639.483074H246.908184V785.68191c0 8.027557 6.568001 14.473928 14.473928 14.473928h500.992517c7.784297 0 14.109039-6.324742 14.109039-14.109039v-146.563725zM246.908184 120.24611h529.940373v-137.80639c0-8.149186-6.689631-14.717187-14.717187-14.717188H255.543889c-4.743556 0-8.514075 3.892149-8.514075 8.514076V120.24611zM562.658748 704.919824h-103.3852c-6.203112 0-11.311557 5.108445-11.311557 11.311557 0 6.203112 5.108445 11.311557 11.311557 11.311558h103.3852c6.203112 0 11.311557-5.108445 11.311557-11.311558 0.12163-6.203112-4.986816-11.311557-11.311557-11.311557zM649.867205 446.091935v75.65364c0 10.46015 8.514075 18.974225 18.974225 18.974225s18.974225-8.514075 18.974225-18.974225v-75.65364c0-10.46015-8.514075-18.974225-18.974225-18.974225s-18.974225 8.514075-18.974225 18.974225zM593.06616 540.598171h75.65364c10.46015 0 18.974225-8.514075 18.974225-18.974225s-8.514075-18.974225-18.974225-18.974225h-75.65364c-10.46015 0-18.974225 8.514075-18.974225 18.974225s8.514075 18.974225 18.974225 18.974225zM345.549828 446.091935v75.65364c0 10.46015 8.514075 18.974225 18.974225 18.974225s18.974225-8.514075 18.974225-18.974225v-75.65364c0-10.46015-8.514075-18.974225-18.974225-18.974225s-18.974225 8.514075-18.974225 18.974225zM364.402423 540.598171h75.653641c10.46015 0 18.974225-8.514075 18.974225-18.974225s-8.514075-18.974225-18.974225-18.974225h-75.653641c-10.46015 0-18.974225 8.514075-18.974225 18.974225 0.12163 10.46015 8.635705 18.974225 18.974225 18.974225zM440.056064 227.766718h-75.653641c-10.46015 0-18.974225 8.514075-18.974225 18.974225s8.514075 18.974225 18.974225 18.974225h75.653641c10.46015 0 18.974225-8.514075 18.974225-18.974225s-8.514075-18.974225-18.974225-18.974225zM345.549828 246.740943v75.653641c0 10.46015 8.514075 18.974225 18.974225 18.974225s18.974225-8.514075 18.974225-18.974225v-75.653641c0-10.46015-8.514075-18.974225-18.974225-18.974225s-18.974225 8.514075-18.974225 18.974225zM593.06616 265.593538h75.65364c10.46015 0 18.974225-8.514075 18.974225-18.974225s-8.514075-18.974225-18.974225-18.974225h-75.65364c-10.46015 0-18.974225 8.514075-18.974225 18.974225s8.514075 18.974225 18.974225 18.974225zM687.694025 322.394584v-75.653641c0-10.46015-8.514075-18.974225-18.974225-18.974225s-18.974225 8.514075-18.974225 18.974225v75.653641c0 10.46015 8.514075 18.974225 18.974225 18.974225s18.974225-8.514075 18.974225-18.974225zM512.060815 35.470246m-30.285782 0a30.285782 30.285782 0 1 1 60.571564 0 30.285782 30.285782 0 1 1-60.571564 0Z"  horiz-adv-x="1024" />

    
    <glyph glyph-name="celveguanli" unicode="&#58976;" d="M608 544h224v-64H608zM608 416h224v-64H608zM608 288h224v-64H608zM896 704H128a64.19 64.19 0 0 1-64-64v-512a64.19 64.19 0 0 1 64-64h768a64.19 64.19 0 0 1 64 64V640a64.19 64.19 0 0 1-64 64zM476 223.47L448.53 196a13.61 13.61 0 0 0-19.25 0L270.81 354.48a99.62 99.62 0 0 0-132.65 132.65l66.32-66.32 46.71 46.71-66.32 66.33a99.62 99.62 0 0 0 132.65-132.66L476 242.71a13.61 13.61 0 0 0 0-19.24zM896 128H544V640h352z"  horiz-adv-x="1024" />

    
    <glyph glyph-name="gateway" unicode="&#59024;" d="M512 896C230.4 896 0 665.6 0 384s230.4-512 512-512 512 230.4 512 512-230.4 512-512 512z m0-960c-249.6 0-448 198.4-448 448s198.4 448 448 448 448-198.4 448-448-198.4-448-448-448zM780.8 300.79999999999995h-6.4L576 633.6c12.8 12.8 19.2 25.6 19.2 44.8 0 44.8-38.4 83.2-83.2 83.2s-76.8-32-76.8-76.8c0-19.2 6.4-32 19.2-44.8L249.6 294.4h-6.4c-44.8 0-83.2-38.4-83.2-83.2 0-44.8 38.4-83.2 83.2-83.2 32 0 57.6 19.2 70.4 51.2H704c12.8-25.6 38.4-51.2 70.4-51.2 44.8 0 83.2 38.4 83.2 83.2 0 51.2-32 89.6-76.8 89.6z m-473.6-38.4l198.4 339.2h12.8l198.4-339.2c-6.4-6.4-6.4-6.4-6.4-12.8H320c-6.4 6.4-6.4 12.8-12.8 12.8z"  horiz-adv-x="1024" />

    
    <glyph glyph-name="wangguan" unicode="&#60509;" d="M964.064 244.96L894.56 705.216C891.84 739.808 861.344 768 824.672 768H203.68a70.336 70.336 0 0 1-70.112-64.64L64.32 255.072l-0.32-4.896 3.392-158.464 0.896-3.328a70.304 70.304 0 0 1 67.872-51.936h756.544c31.296 0 58.848 20.704 67.552 50.752l1.056 3.584 3.04 149.408-0.288 4.768zM189.376 696.8c0.832 9.344 6.944 14.976 14.272 14.976H824.64a14.08 14.08 0 0 0 14.016-12.96l62.208-412.16H126.112L189.376 696.8z m715.872-596.48a14.08 14.08 0 0 0-12.512-7.616H136.192a14.08 14.08 0 0 0-12.704 8l-2.816 129.664h787.232l-2.656-130.048zM753.216 120.992h84.352a28.16 28.16 0 0 1 0 56.256h-84.352a28.16 28.16 0 0 1 0-56.256zM640.736 120.992h14.048a28.16 28.16 0 0 1 0 56.256h-14.048a28.16 28.16 0 0 1 0-56.256zM528.256 120.992h14.048a28.16 28.16 0 0 1 0 56.256h-14.048a28.16 28.16 0 0 1 0-56.256z"  horiz-adv-x="1024" />

    
    <glyph glyph-name="gujianshengji" unicode="&#58946;" d="M534.656 534.592C528.864 540.4 520.848 544 512 544s-16.864-3.6-22.656-9.408l-127.952-127.952a32 32 0 1 1 45.248-45.248L480 434.752V256a32 32 0 1 1 64 0V434.752l73.36-73.36a32 32 0 1 1 45.232 45.264l-127.936 127.936zM928 320h-32v128h32a32 32 0 0 1 0 64h-32v32c0 123.52-100.48 224-224 224h-32V800a32 32 0 0 1-64 0v-32h-128V800a32 32 0 0 1-64 0v-32h-32C228.48 768 128 667.52 128 544v-32H96a32 32 0 0 1 0-64h32v-128H96a32 32 0 0 1 0-64h32v-32c0-123.52 100.48-224 224-224h32v-32a32 32 0 0 1 64 0v32h128v-32a32 32 0 0 1 64 0v32h32c123.52 0 224 100.48 224 224v32h32a32 32 0 0 1 0 64z m-96-96c0-88.224-71.776-160-160-160H352c-88.224 0-160 71.776-160 160V544c0 88.224 71.776 160 160 160h320c88.224 0 160-71.776 160-160v-320z"  horiz-adv-x="1024" />

    
    <glyph glyph-name="piciguanli" unicode="&#58915;" d="M693.570603 835.49319h-0.100343C693.47026 868.907398 666.879373 896 634.067222 896h-500.711416c-32.912494 0-59.503381-27.092602-59.503381-60.50681v-696.982264c0-33.414209 26.69123-60.50681 59.503381-60.50681h69.136306V698.023322c0 38.331014 30.504263 69.437335 68.233219 69.437335h422.845272V835.49319zM888.13562 685.179422H365.750122c-34.317295 0-62.011955-28.296717-62.011954-63.115728v-686.947966c0-34.81901 27.795002-63.115728 62.011954-63.115728h522.385498c34.317295 0 62.011955 28.296717 62.011955 63.115728V622.063694c0 34.81901-27.795002 63.115728-62.011955 63.115728zM470.809211 103.792259c0-25.085742-20.369623-45.555708-45.555708-45.555708-25.085742 0-45.555708 20.369623-45.555708 45.555708 0 25.085742 20.369623 45.555708 45.555708 45.555708 25.085742-0.100343 45.555708-20.469966 45.555708-45.555708z m0 174.797452c0-25.085742-20.369623-45.555708-45.555708-45.555708-25.085742 0-45.555708 20.369623-45.555708 45.555708 0 25.085742 20.369623 45.555708 45.555708 45.555708 25.085742 0 45.555708-20.469966 45.555708-45.555708z m0 174.797452c0-25.085742-20.369623-45.555708-45.555708-45.555708-25.085742 0-45.555708 20.369623-45.555708 45.555708 0 25.085742 20.369623 45.555708 45.555708 45.555708 25.085742 0 45.555708-20.369623 45.555708-45.555708z m403.378736-349.594904c0-25.085742-20.369623-45.555708-45.555708-45.555708H586.504655c-25.085742 0-45.555708 20.369623-45.555708 45.555708 0 25.085742 20.369623 45.555708 45.555708 45.555708h242.127584c25.085742-0.100343 45.555708-20.469966 45.555708-45.555708z m0 174.797452c0-25.085742-20.369623-45.555708-45.555708-45.555708H586.504655c-25.085742 0-45.555708 20.369623-45.555708 45.555708 0 25.085742 20.369623 45.555708 45.555708 45.555708h242.127584c25.085742 0 45.555708-20.469966 45.555708-45.555708z m0 174.797452c0-25.085742-20.369623-45.555708-45.555708-45.555708H586.504655c-25.085742 0-45.555708 20.369623-45.555708 45.555708 0 25.085742 20.369623 45.555708 45.555708 45.555708h242.127584c25.085742 0 45.555708-20.369623 45.555708-45.555708z"  horiz-adv-x="1024" />

    
    <glyph glyph-name="shenheguanli" unicode="&#58901;" d="M423.936-16.384a32.192 32.192 0 1 0 0-64.384H85.824c-47.36 0-85.824 38.4-85.824 85.888V810.176C0 857.536 38.4 896 85.824 896h683.52c47.488 0 85.888-38.4 85.888-85.824v-319.552a32.192 32.192 0 0 0-64.384 0V810.176a21.44 21.44 0 0 1-21.44 21.44H85.888a21.44 21.44 0 0 1-21.504-21.44v-805.12c0-11.84 9.6-21.44 21.44-21.44h338.112z m158.784 14.144a13.952 13.952 0 0 1-13.952-13.952v-7.488c0-7.68 6.272-13.952 13.952-13.952h358.4c7.744 0 14.016 6.208 14.016 13.952v7.488a13.952 13.952 0 0 1-13.952 13.952h-358.4z m179.712 241.344c32.384 0 58.432 25.6 58.432 56.96s-26.048 56.96-58.432 56.96-58.432-25.6-58.432-56.96 26.048-56.96 58.432-56.96z m-564.608-3.072h260.48a31.488 31.488 0 1 0 0-63.04h-260.48a31.488 31.488 0 1 0 0 63.04z m0 232.832h351.744a31.488 31.488 0 1 0 0-62.976H197.76a31.488 31.488 0 1 0 0 62.976z m0 233.984h459.84a31.488 31.488 0 0 0 0-62.976H197.824a31.488 31.488 0 1 0 0 62.976z m396.352-640.64a28.864 28.864 0 0 0 2.624 5.184l86.4 136a120.384 120.384 0 0 0-43.584 92.672c0 67.136 55.104 121.28 122.88 121.28 67.648 0 122.752-54.144 122.752-121.28 0-37.76-17.408-71.424-44.672-93.632l85.76-135.04c1.024-1.664 1.92-3.392 2.624-5.248h12.16c43.328 0 78.4-35.072 78.4-78.336v-7.488c0-43.264-35.072-78.336-78.336-78.336h-358.4A78.336 78.336 0 0 0 504.32-23.68v7.488c0 43.264 35.072 78.336 78.336 78.336h11.456z m74.88 0h185.024l-71.04 111.68a29.44 29.44 0 0 0-1.28 2.368 124.672 124.672 0 0 0-40.32 0.256 28.608 28.608 0 0 0-1.408-2.56l-71.04-111.808z"  horiz-adv-x="1024" />

    
    <glyph glyph-name="shoudongbaojingqi" unicode="&#58889;" d="M873.472 235.52h-716.8V712.192h716.8z m-702.976 12.8h690.176V699.392H170.496z m345.088 99.328a74.24 74.24 0 1 0 74.24 74.24 74.752 74.752 0 0 0-74.24-74.752z m0 136.192a61.44 61.44 0 1 1 61.44-61.44 61.952 61.952 0 0 1-61.44 60.928z m165.888-121.856l-84.48 59.904 84.48 60.416v-37.376h110.08v-46.08h-110.08z m-62.464 59.904l51.2-35.328v25.088h110.08v20.48h-111.616v25.088z m-269.312-60.416v37.376H239.616v46.08h110.08v37.376l84.48-60.416z m-97.28 51.2h110.08V384l51.2 35.328-51.2 35.328v-25.088H252.416z m424.448 162.816a28.672 28.672 0 1 0 28.672 28.672 28.672 28.672 0 0 0-28.672-29.696z m0 44.544a15.872 15.872 0 1 1 15.872-15.872 15.872 15.872 0 0 1-15.872 14.848z m-322.56-44.544a28.672 28.672 0 1 0 28.672 28.672 28.672 28.672 0 0 0-28.672-29.696z m0 44.544a15.872 15.872 0 1 1 15.872-15.872 15.872 15.872 0 0 1-15.872 14.848zM105.472 844.8a51.2 51.2 0 0 1-51.2-51.2v-819.2a51.2 51.2 0 0 1 51.2-51.2h819.2a51.2 51.2 0 0 1 51.2 51.2V793.6a51.2 51.2 0 0 1-51.2 51.2z m352.256-719.872c-28.16 0-32.256 13.312-9.728 29.696a187.904 187.904 0 0 0 66.56 5.12 187.904 187.904 0 0 0 66.56-5.12c23.04-16.384 18.432-29.696-9.728-29.696z m409.6 167.936a51.2 51.2 0 0 0-51.2-51.2H214.528a51.2 51.2 0 0 0-51.2 51.2V654.848a51.2 51.2 0 0 0 51.2 51.2h600.576a51.2 51.2 0 0 0 51.2-51.2zM924.672-83.456h-819.2A57.856 57.856 0 0 0 47.616-25.6V793.6A57.856 57.856 0 0 0 105.472 850.944h819.2A57.856 57.856 0 0 0 982.016 793.6v-819.2a57.856 57.856 0 0 0-57.344-57.344z m-819.2 921.6a45.056 45.056 0 0 1-45.056-44.544v-819.2a45.056 45.056 0 0 1 45.056-45.056h819.2a45.056 45.056 0 0 1 44.544 44.544V793.6a45.056 45.056 0 0 1-44.544 45.056h-819.2z m466.944-719.872H457.728c-21.504 0-28.16 7.168-30.208 13.312s0 15.872 16.896 28.16a209.92 209.92 0 0 0 70.656 6.144 209.92 209.92 0 0 0 70.656-6.144c17.408-12.288 18.432-22.016 16.896-28.16s-9.216-12.8-30.72-12.8z m-57.344 34.816a227.328 227.328 0 0 1-64-4.096c-10.24-7.168-11.776-12.288-11.264-13.312s4.608-4.096 17.92-4.096h114.176c13.312 0 17.408 3.072 17.92 4.096s0 6.144-11.776 13.824a269.824 269.824 0 0 1-62.976 4.096z m300.544 81.92H214.528a57.856 57.856 0 0 0-57.344 57.344V654.848a57.856 57.856 0 0 0 57.344 57.344h600.576A57.856 57.856 0 0 0 870.4 654.848v-361.472a57.856 57.856 0 0 0-55.296-57.856zM214.528 699.392a45.056 45.056 0 0 1-44.544-45.056v-361.472a45.056 45.056 0 0 1 45.056-45.056h600.064a45.056 45.056 0 0 1 44.544 44.544V654.848a45.056 45.056 0 0 1-44.544 44.544zM674.816 404.992h110.08v33.28h-110.08v31.744l-67.072-48.128 67.072-48.128v31.232zM681.472 361.472l-84.48 60.416 84.48 60.416v-37.376h110.08v-46.08h-110.08z m-62.464 60.416l51.2-35.328v25.088h110.08v20.48h-111.616v25.088zM356.352 373.76l66.56 48.128-66.56 48.128v-31.744H245.76v-33.28h110.592v-31.232zM349.696 361.472v37.376H239.616v46.08h110.08v37.376l84.48-60.416z m-97.28 51.2h110.08V384l51.2 35.328-51.2 35.328v-25.088H252.416zM515.584 421.888m-68.096 0a68.096 68.096 0 1 1 136.192 0 68.096 68.096 0 1 1-136.192 0ZM515.584 347.136a74.24 74.24 0 1 0 74.24 74.24 74.752 74.752 0 0 0-74.24-74.24z m0 136.192a61.44 61.44 0 1 1 61.44-61.44 61.952 61.952 0 0 1-61.44 61.44zM676.864 603.136m-22.016 0a22.016 22.016 0 1 1 44.032 0 22.016 22.016 0 1 1-44.032 0ZM676.864 574.464a28.672 28.672 0 1 0 28.672 28.672 28.672 28.672 0 0 0-28.672-28.672z m0 44.544a15.872 15.872 0 1 1 15.872-15.872 15.872 15.872 0 0 1-15.872 15.872zM354.304 603.136m-22.016 0a22.016 22.016 0 1 1 44.032 0 22.016 22.016 0 1 1-44.032 0ZM354.304 574.464a28.672 28.672 0 1 0 28.672 28.672 28.672 28.672 0 0 0-28.672-28.672z m0 44.544a15.872 15.872 0 1 1 15.872-15.872 15.872 15.872 0 0 1-15.872 15.872z"  horiz-adv-x="1024" />

    
    <glyph glyph-name="WIFIshebeibaojing" unicode="&#58996;" d="M511.9945 384.0055m-115.147763 0a115.147763 115.147763 0 1 1 230.295526 0 115.147763 115.147763 0 1 1-230.295526 0ZM1017.709068 303.662363A515.73446 515.73446 0 0 1 1023.989 384.0055C1023.989 666.772462 794.761463 896 511.9945 896S0 666.772462 0 384.0055c0-189.491964 102.945894-354.935187 255.95725-443.469236l49.989463 86.58407c-31.023667 17.933807-59.58236 39.864572-85.277083 65.560295-37.869593 37.869593-67.589274 81.94012-88.335052 130.988593C110.877809 274.397677 99.998926 328.342098 99.998926 384.0055s10.878883 109.607823 32.335652 160.336278c20.745777 49.048473 50.465458 93.12 88.335052 130.988592s81.94012 67.589274 130.988592 88.335052C402.386677 785.122191 456.331098 796.001074 511.9945 796.001074c55.662402 0 109.607823-10.878883 160.336278-32.335652 49.048473-20.745777 93.119-50.465458 130.988593-88.335052 37.868593-37.869593 67.589274-81.94012 88.335051-130.988592C913.111191 493.613323 923.990074 439.668902 923.990074 384.0055c0-3.576962-0.046999-7.146923-0.136998-10.709885 35.710616-16.954818 67.562274-40.718563 93.855992-69.633252zM825.118136 400.75532C816.41323 566.147543 679.5557 697.576132 511.9945 697.576132c-173.18014 0-313.570632-140.390492-313.570632-313.570632 0-116.054753 63.051323-217.375665 156.763317-271.598083l49.982463 86.573071c-15.951829 9.244901-30.808669 20.620778-44.193526 34.006634-40.337567 40.338567-62.553328 93.970991-62.553328 151.018378s22.215761 110.679811 62.553328 151.018378c40.338567 40.337567 93.970991 62.553328 151.018378 62.553328s110.679811-22.215761 151.018378-62.553328c37.931593-37.931593 59.833357-87.619059 62.31233-140.846487a301.961756 301.961756 0 0 0 69.538253 8.084913c10.21189 0 20.303782-0.514994 30.254675-1.506984zM794.862461 280.263614c47.846486 0 92.829003-18.6328 126.66164-52.465436S973.989537 148.984025 973.989537 101.137539s-18.6328-92.829003-52.465436-126.66164S842.708947-77.989537 794.862461-77.989537s-92.829003 18.6328-126.660639 52.465436c-33.832637 33.832637-52.465436 78.815153-52.465436 126.66164s18.6328 92.828003 52.465436 126.660639c33.831637 33.832637 78.814153 52.465436 126.660639 52.465436m0 49.999463c-126.542641 0-229.125539-102.583898-229.125538-229.125538 0-126.542641 102.582898-229.126539 229.125538-229.126539C921.404102-127.989 1023.989-25.405102 1023.989 101.137539c0 126.541641-102.584898 229.125539-229.126539 229.125538zM794.862461-2.135352m-38.321588 0a38.321588 38.321588 0 1 1 76.643177 0 38.321588 38.321588 0 1 1-76.643177 0ZM794.862461 244.537998c-20.717777 0-37.516597-10.866883-37.516597-24.268739 0-13.402856 0.523994-160.761273 37.516597-160.761273s37.517597 147.357417 37.517597 160.761273c0 13.401856-16.79982 24.268739-37.517597 24.268739z"  horiz-adv-x="1024" />

    
    <glyph glyph-name="tongzhigonggao" unicode="&#58891;" d="M24.380952 603.428571h975.238096v-731.428571H24.380952V603.428571z m162.523429-162.523428v-68.266667h650.191238v68.266667H186.904381z m0-162.572191v-68.266666h650.191238v68.266666H186.904381z m0-162.523428v-68.266667h650.191238V115.809524H186.904381zM512 847.238095l390.095238-292.571428H121.904762l390.095238 292.571428z m-3.413333-87.868952L310.418286 603.428571h398.189714l-199.92381 155.940572zM509.318095 790.869333m-73.142857 0a73.142857 73.142857 0 1 1 146.285714 0 73.142857 73.142857 0 1 1-146.285714 0Z"  horiz-adv-x="1024" />

    
    <glyph glyph-name="shengban-shengji" unicode="&#58947;" d="M809.38 792.1H214.63c-61.69 0-110.73-50.62-110.73-110.73v-594.75c0-61.69 50.62-110.72 110.73-110.72h594.75c60.11 0 110.72 50.62 110.72 110.72V681.37c0 61.7-50.62 110.73-110.72 110.73zM619.56 64.48H412.35c-4.75 0-9.49 4.75-9.49 9.49s4.75 9.49 9.49 9.49h207.21c4.75 0 9.49-4.75 9.49-9.49s-3.16-9.49-9.49-9.49z m-7.91 36.38H421.84c-11.07 0-18.98 7.91-18.98 18.98s7.91 18.98 18.98 18.98h189.81c11.08 0 18.99-7.91 18.99-18.98 0-9.49-7.91-18.98-18.99-18.98z m134.46 303.71H633.64c0.1-1.05 0.15-2.1 0.15-3.17v-211.96c-1.58-18.98-15.82-34.8-34.8-34.8H440.82c-18.98 0-34.8 15.82-34.8 34.8V401.4c0 1.07 0.06 2.12 0.15 3.17H300.04c-23.73-1.58-36.38 26.89-18.99 44.29l223.03 223.03c11.07 11.07 26.89 11.07 37.96 0l223.03-223.03c17.41-17.41 4.76-44.29-18.96-44.29z"  horiz-adv-x="1024" />

    
    <glyph glyph-name="gaojingyichuli" unicode="&#58888;" d="M838.412 370.713L657.943 208.427a17.653 17.653 0 0 0-11.825-4.54c-4.55 0-9.081 1.749-12.524 5.193L517.661 325.008c-6.915 6.9-6.915 18.119 0 25.025 6.914 6.914 18.124 6.914 25.038 0L646.77 245.98l167.986 151.05c7.255 6.543 18.464 5.954 24.984-1.318 6.533-7.26 5.937-18.439-1.328-24.999zM679.924 48.329c-71.863 0-139.424 27.984-190.237 78.799-50.813 50.813-78.797 118.374-78.797 190.236 0 71.863 27.984 139.425 78.797 190.239 50.813 50.814 118.374 78.799 190.237 78.799s139.425-27.985 190.239-78.799c50.814-50.814 78.8-118.375 78.8-190.239 0-71.861-27.985-139.422-78.8-190.236s-118.376-78.799-190.239-78.799z m0 491.675c-122.762 0-222.636-99.875-222.636-222.64 0-122.763 99.874-222.637 222.636-222.637 122.765 0 222.641 99.874 222.641 222.637-0.001 122.764-99.877 222.64-222.641 222.64zM475.191-9.859c-25.434 0-46.54 16.819-54.346 39.707h-59.956c8.926-55.185 56.707-97.791 114.297-97.791 57.613 0 105.384 42.62 114.31 97.791h-59.945c-7.817-22.888-28.913-39.707-54.36-39.707zM302.501 558.11c-23.521-31.324-35.95-68.574-35.95-107.804v-163.365c0-9.017 7.304-16.339 16.344-16.339 9.035 0 16.334 7.322 16.334 16.339V450.306c0 32.107 10.164 62.583 29.38 88.184 5.456 7.25 3.992 17.468-3.194 22.864-7.272 5.428-17.495 3.924-22.914-3.244zM451.244 79.345c0 16.05-12.986 29.035-29.04 29.035H164.733c22.864 31.65 46.398 76.132 49.924 128.207 3.117 45.838 2.492 120.76 2.035 175.503l-0.286 41.863c0 71.528 30.35 139.766 83.328 187.239 51.451 46.181 116.966 67.504 185.376 60.191 54.907-5.899 104.886-31.6 144.482-74.197 10.943-11.853 29.321-12.474 41.007-1.531 11.799 10.897 12.475 29.275 1.532 41.011-37.518 40.417-84.479 68.836-135.231 83.213v4.201c0 43.621-34.944 79.077-77.944 79.077s-77.939-35.456-77.939-79.077v-3.987c-43.802-12.012-84.718-33.911-120.087-65.67-65.23-58.492-102.603-142.498-102.603-230.475l0.29-42.375c0.453-53.774 1.069-127.405-1.93-171.021-5.284-78.279-74.818-138.467-75.502-139.092-9.302-7.884-12.646-20.766-8.45-32.166 4.2-11.409 15.088-19.003 27.232-19.003h322.242c16.049 0.005 29.035 12.996 29.035 29.054z m7.721 695.714c8.84 0 16.239-6.565 18.713-15.179-12.592 0.779-25.066 0.807-37.417 0.041 2.482 8.595 9.868 15.138 18.704 15.138z"  horiz-adv-x="1024" />

    
    <glyph glyph-name="weichuligaojing" unicode="&#58919;" d="M512.07 768H512c-176 0-320-144-320-320v-352h240.41A287.49 287.49 0 0 0 416 192c0 159.06 128.94 288 288 288a286.78 286.78 0 0 0 128-29.95C830.9 625.11 687.37 768 512.07 768zM446 64H128v-64H64v-64h508a289.22 289.22 0 0 0-126 128z m472.68-64A289.06 289.06 0 0 0 836-64h124v64zM704 448c-141.38 0-256-114.62-256-256s114.62-256 256-256 256 114.62 256 256-114.61 256-256 256z m32-320h-64V352h64z m0-96h-64v64h64z"  horiz-adv-x="1024" />

    
    <glyph glyph-name="baojing" unicode="&#58999;" d="M831.937316 70.581783H191.059745a40.117532 40.117532 0 0 0-40.117531 40.117531V362.436827a361.057786 361.057786 0 1 0 721.112634 0v-251.737513a40.117532 40.117532 0 0 0-40.117532-40.117531z m-600.760039 80.235063h560.642508V362.436827c0 154.452498-125.367287 280.822723-280.822723 280.822722S231.177277 517.892262 231.177277 362.436827zM872.054848-128H151.945152a94.2762 94.2762 0 0 0 0 188.5524h720.109696a94.2762 94.2762 0 0 0 0-188.5524zM151.945152-19.682664a14.041136 14.041136 0 0 1 0-28.082272h720.109696a14.041136 14.041136 0 0 1 0 28.082272zM512 737.535749a40.117532 40.117532 0 0 0-40.117532 40.117532V855.882468a40.117532 40.117532 0 0 0 80.235064 0v-78.229187a40.117532 40.117532 0 0 0-40.117532-40.117532zM701.555338 700.427032a40.117532 40.117532 0 0 0-35.10284 59.17336l37.108716 69.202742a40.38331 40.38331 0 1 0 71.208619-38.111655l-37.108716-69.202742a40.117532 40.117532 0 0 0-36.105779-21.061705zM841.966699 582.080313a40.117532 40.117532 0 0 0-29.08521 67.196866l53.155729 57.167483a40.117532 40.117532 0 0 0 59.17336-54.158668l-53.15573-57.167483a40.117532 40.117532 0 0 0-30.088149-13.038198zM323.4476 700.427032a40.117532 40.117532 0 0 0-35.10284 21.061705l-37.108717 69.202742a40.38331 40.38331 0 0 0 71.208619 38.111655l37.108717-69.202742a40.117532 40.117532 0 0 0-35.10284-59.17336zM182.033301 582.080313a40.117532 40.117532 0 0 0-29.085211 13.038198l-53.15573 57.167483a40.117532 40.117532 0 0 0 59.17336 54.158668l53.15573-57.167483a40.117532 40.117532 0 0 0-29.085211-67.196866zM438.785504 169.872674a40.117532 40.117532 0 0 0-28.082272 68.199804l134.393732 135.39667H381.618022a40.117532 40.117532 0 0 0-28.082273 68.199804l153.44956 153.449559a40.423428 40.423428 0 0 0 57.167482-57.167483l-85.249755-85.249755h162.476004a40.117532 40.117532 0 0 0 28.082272-68.199804L466.867777 181.907933a40.117532 40.117532 0 0 0-28.082273-12.035259z"  horiz-adv-x="1024" />

    
    <glyph glyph-name="zaixianzhihang" unicode="&#58912;" d="M848.63 160.06H177.37C115.96 160.06 66 210.02 66 271.43V688.7c0 61.41 49.96 111.36 111.36 111.36h671.27C910.04 800.06 960 750.11 960 688.7v-417.27c0-61.41-49.96-111.37-111.37-111.37z m-671.26 576c-26.12 0-47.36-21.25-47.36-47.36v-417.27c0-26.12 21.25-47.36 47.36-47.36h671.27c26.12 0 47.36 21.25 47.36 47.36V688.7c0 26.12-21.25 47.36-47.36 47.36H177.37zM736.14-31.65H288.06c-17.65 0-31.96 14.31-31.96 31.96v0.08c0 17.65 14.31 31.96 31.96 31.96h448.08c17.65 0 31.96-14.31 31.96-31.96v-0.08c0-17.65-14.31-31.96-31.96-31.96zM445.13 290.77c-8.17 0-16.35 3.11-22.59 9.34L269.41 452.78c-12.52 12.48-12.55 32.74-0.07 45.25 12.48 12.51 32.74 12.55 45.25 0.07l130.53-130.15L717.4 639.42c12.51 12.48 32.78 12.45 45.25-0.07 12.48-12.52 12.45-32.78-0.07-45.25l-294.87-294c-6.23-6.22-14.4-9.33-22.58-9.33z"  horiz-adv-x="1024" />

    
    <glyph glyph-name="yanzhengma" unicode="&#58900;" d="M848 92.8H176c-61.8 0-112 50.2-112 112V563.2c0 61.8 50.2 112 112 112h672c61.8 0 112-50.2 112-112v-358.4c0-61.8-50.2-112-112-112zM176 630.4c-37.1 0-67.2-30.1-67.2-67.2v-358.4c0-37.1 30.1-67.2 67.2-67.2h672c37.1 0 67.2 30.1 67.2 67.2V563.2c0 37.1-30.1 67.2-67.2 67.2H176zM167.7 328c12.6-17.8 28.1-30.3 46.6-37.6 17.5-6.9 33.6-7.6 48.2-2 14.5 5.4 25.1 16.2 31.6 32.3 6.5 16.2 6 30.8-1.4 43.9-7.2 13.1-21.2 23.8-41.9 31.8-9.9 3.9-23.7 8.4-41.1 13.6l51.2 127.7 125-49.2-11.2-28-95.2 37.5-28.5-71.1c9.7-3.2 17-5.7 21.9-7.8 26.7-10.5 45-25.4 54.6-44.7 9.6-19.2 9.6-40.8 0.1-64.4-9.8-24.3-25.7-40.9-47.8-49.6-22.1-8.7-47.4-7.5-75.7 3.7-23.7 9.3-40.3 19.7-49.5 31.4l13.1 32.5zM380.4 298.1c20.4-11.6 42.4-15.8 65.7-12.7 18.6 2.5 32.8 9.1 42.3 19.5 9.8 10.7 13.4 23.4 11.3 38.7-4.7 33.9-31.6 47.5-80.6 40.9l-22.5-3-3.8 27.9 21.5 2.9c43.5 6 63 24.8 58.6 56.7-4.1 29.4-22.7 41.9-55.9 37.3-19.1-2.5-36-11.4-51-26.3l-4.5 32.1c16.4 12.5 36.3 20.4 60 23.6 23.1 3.2 42.5-0.2 58.2-10.3 15.6-10.1 24.7-24.6 27.4-43.6 4.8-35.1-10.1-60.1-44.8-75l0.2-0.7c19.8 0.6 36.2-4.2 49.2-14.2 13-10.1 20.7-23.8 23.1-41 3.4-24-2.7-44.8-18.2-61.9-15.5-17.2-37.9-27.7-67-31.6-25.7-3.5-46.9-1.6-64.1 5.7l-5.1 35zM696.8 525.9l-107-258.7H554l101.6 240.5H519v30.1h177.7v-11.9zM764.5 367.5l-46 103.8c-3.2 7.4-6.9 16-10.7 25.7l-0.6-0.2c0.4-4.8 0-12.5-1.1-23.3l-25.7-142.6 84.1 36.6z m73.6 2.5l-31.9-13.9 28.4-64.5-30.7-13.3-28.6 64.4L658.7 292l-9 20.4 38.5 211.2 36.7 16 70.2-158.7 32 13.9 11-24.8z"  horiz-adv-x="1024" />

    
    <glyph glyph-name="shuxian" unicode="&#58897;" d="M472.615385 812l78.769231 0 0-1024L472.615385-212 472.615385 812z"  horiz-adv-x="1024" />

    
    <glyph glyph-name="mima" unicode="&#59645;" d="M810.348749 448.946886V615.318241C810.336469 770.621639 676.2736 893.651344 512.443087 895.995712a50.831144 50.831144 0 0 1-1.8757-0.011256c-1.644435 0.023536-3.722746-0.08084-5.389693-0.08084-162.562651 0-294.276036-124.905404-294.276036-278.940941v-168.015789c-57.531678 0-104.16322-44.20531-104.16322-98.732595v-374.784774c0-57.126453 48.859255-103.427471 109.118013-103.42747H810.868583c58.758608 0 106.391956 45.148788 106.391955 100.839558v374.761238c0 55.969107-47.863589 101.344043-106.911789 101.344043zM438.151887 52.158205l27.051821 112.134686c-31.903261 18.003848-51.407259 53.699439-43.087873 92.91414 7.045384 33.194659 35.17985 60.148242 70.145832 67.077995 59.418633 11.763797 111.746857-30.902478 111.746858-85.157567 0-31.984101-18.247392-59.86479-45.36368-75.032064l32.187736-132.18717c6.744536-27.694449-15.450728-54.133316-45.43838-54.133316h-44.697515c-41.212173-0.001023-71.744219 36.302405-62.544799 74.383296z m22.629141 396.788681c-56.697693 0-102.657953 43.562681-102.657954 97.303052v70.71376c0 76.83818 65.971813 139.34307 147.053597 139.343071 2.315716 0 7.172273 0.109493 7.172273 0.109492s2.47228-0.08084 3.69921-0.08084c81.064387 0 147.04234-62.50489 147.04234-139.34307v-80.260078c0-48.483706-41.466973-87.785387-92.619432-87.785387H460.781028z m202.310489 0"  horiz-adv-x="1024" />

    
    <glyph glyph-name="yonghuming" unicode="&#59214;" d="M877.6 250.3c-4.7 2.1-71 31-156.7 55.5-29 8.3-58.4 15.4-88 21.3 43.7 37.1 72.2 91.7 72.2 153.5V629.8C704.9 741.5 614.3 832 502.5 832c-111.7 0-202.6-90.6-202.6-202.2v-149.2c0-63.4 30-119.5 76-156.6-30.9-6.6-60.7-14.4-88.2-22.6-47.6-14.2-94.4-31.1-140.1-50.5-35.4-14.2-62.1-54.1-62.1-92.6v-159.6l2.1-6c11.4-34 42.5-56.7 77.2-56.7h694.4c39.8 0 73.5 29.5 78.7 69l0.7 153.2c0 38.3-26.6 78-61 92.1"  horiz-adv-x="1024" />

    
    <glyph glyph-name="zaixianshebei" unicode="&#58972;" d="M433.230769 502.153846h157.538462c23.630769 0 39.384615-15.753846 39.384615-39.384615v-157.538462c0-23.630769-15.753846-39.384615-39.384615-39.384615h-157.538462c-23.630769 0-39.384615 15.753846-39.384615 39.384615v157.538462c0 23.630769 15.753846 39.384615 39.384615 39.384615zM315.076923 222.523077c-11.815385 0-27.569231 7.876923-35.446154 19.692308C252.061538 289.476923 236.307692 344.615385 236.307692 403.692308c0 55.138462 15.753846 110.276923 43.323077 161.476923 11.815385 15.753846 35.446154 19.692308 55.138462 11.815384 15.753846-11.815385 23.630769-35.446154 11.815384-55.138461-19.692308-35.446154-31.507692-78.769231-31.507692-118.153846 0-43.323077 11.815385-86.646154 35.446154-122.092308 7.876923-19.692308 3.938462-43.323077-15.753846-55.138462-3.938462-3.938462-11.815385-3.938462-19.692308-3.938461zM708.923077 222.523077c-7.876923 0-15.753846 0-19.692308 3.938461-19.692308 11.815385-23.630769 35.446154-11.815384 55.138462 23.630769 35.446154 35.446154 78.769231 35.446153 122.092308s-11.815385 82.707692-31.507692 118.153846c-11.815385 19.692308-3.938462 43.323077 15.753846 55.138461 11.815385 7.876923 35.446154 3.938462 47.261539-15.753846 27.569231-47.261538 43.323077-102.4 43.323077-161.476923 0-59.076923-15.753846-114.215385-43.323077-161.476923-7.876923-11.815385-23.630769-15.753846-35.446154-15.753846zM236.307692 76.8c-11.815385 0-19.692308 3.938462-27.56923 11.815385-82.707692 86.646154-129.969231 196.923077-129.969231 319.015384 0 122.092308 47.261538 236.307692 133.907692 322.953846 15.753846 15.753846 39.384615 15.753846 55.138462 0 15.753846-15.753846 15.753846-39.384615 0-55.138461C196.923077 600.615385 157.538462 506.092308 157.538462 407.630769s39.384615-192.984615 106.338461-263.876923c15.753846-15.753846 15.753846-39.384615 0-55.138461-7.876923-7.876923-15.753846-11.815385-27.569231-11.815385zM791.630769 76.8c-11.815385 0-19.692308 3.938462-27.569231 11.815385-15.753846 15.753846-15.753846 39.384615 0 55.138461 70.892308 70.892308 106.338462 165.415385 106.338462 263.876923s-39.384615 192.984615-110.276923 263.876923c-15.753846 15.753846-15.753846 39.384615 0 55.138462 15.753846 15.753846 39.384615 15.753846 55.138461 0 86.646154-86.646154 133.907692-200.861538 133.907693-322.953846 0-118.153846-47.261538-232.369231-129.969231-319.015385-7.876923-3.938462-19.692308-7.876923-27.569231-7.876923z"  horiz-adv-x="1024" />

    
    <glyph glyph-name="chanpinshuliang" unicode="&#58934;" d="M938.4 573.5H89.3c-43.1 0.1-78.1 35.3-78.2 78.6v50.2c0.1 43.4 35.1 78.5 78.2 78.6h849.2c43.2-0.1 78.2-35.4 78.2-78.9v-50c-0.2-43.3-35.1-78.4-78.3-78.5z m78.2-578.4V436.8c0 43.5-35 78.7-78.2 78.9H89.3C46 515.6 11 480.3 11 436.8v-441.7c0.1-43.4 35.1-78.5 78.2-78.6h849.2c43.2 0.1 78.1 35.2 78.2 78.6zM796 319.9h-24.1c-15.9-115-125.8-204.4-258.8-204.4s-242.8 89.3-258.8 204.4h-24.1c-15.9 0-28.7 12.9-28.7 28.9 0 16 12.9 28.9 28.7 28.9h99.9c15.9 0 28.7-12.9 28.7-28.9 0-15.9-12.9-28.9-28.7-28.9h-18.3c15.9-83 99.7-145.6 200.6-145.6S696.8 237.8 713 319.9h-18.3c-15.9 0-28.7 12.9-28.7 28.9 0 15.9 12.9 28.9 28.7 28.9h99.9c15.9 0 28.7-12.9 28.7-28.9 0-16-12.9-28.9-28.7-28.9h1.4z"  horiz-adv-x="1024" />

    
    <glyph glyph-name="theme" unicode="&#58933;" d="M797.7984-106.2912H229.1712c-47.104 0-85.4528 38.3488-85.4528 85.4528v491.008l-38.8608-24.832c-8.192-5.6832-19.6096-9.1136-31.1808-9.1136-27.7504 0-49.9712 18.432-54.016 44.9024l-3.9936 24.9344C9.1136 546.6112 0.1024 602.2144000000001 0.0512 636.5696-0.0512 670.6688 29.184 703.488 47.616 716.1856L270.2336 868.4032C278.9888 874.24 286.72 874.24 294.912 874.24l50.688-0.256 18.9952 0.0512c8.96 1.1776 16.7936-3.2768 22.784-9.2672a31.9488 31.9488 0 0 0 9.5232-22.7328C397.1072 778.3936 447.6416 728.576 512 728.576s114.8928 49.8176 115.0464 113.408a32.1024 32.1024 0 0 0 9.5232 22.7328c6.0416 6.0416 13.8752 10.8032 22.8352 9.2672l19.0464-0.0512 50.8416 0.256c8.3968 0 16.2816 0 24.832-5.888l227.7376-152.0128c29.952-21.4528 42.6496-45.9776 42.1376-80.2304-0.768-7.7824-13.2608-116.8896-19.712-155.2896-4.1984-24.9856-28.2624-43.776-55.9616-43.776-10.9568 0-21.248 3.072-29.7984 8.96l-35.2768 22.528v-489.2672a85.504 85.504 0 0 0-85.4528-85.504zM175.8208 561.0496a32.256 32.256 0 0 0 32.1536-32.1024v-549.7856c0-11.6736 9.5232-21.1968 21.1968-21.1968h568.6272a21.248 21.248 0 0 1 21.1968 21.1968V527.0527999999999a32.1024 32.1024 0 0 0 49.408 27.0336l74.8032-47.7696c6.6048 45.312 16.64 132.864 16.7424 133.8368-0.0512 8.192-1.28 13.7216-14.6432 23.3472l-219.4432 146.432-10.4448-0.0512-27.0848-0.2048A179.456 179.456 0 0 0 512 664.3199999999999a179.4048 179.4048 0 0 0-176.2816 145.3568l-26.9312 0.2048-10.1888 0.0512L83.968 663.2447999999999c-8.0896-5.5808-19.3536-20.736-19.712-26.5216 0.1024-29.2352 8.6528-81.92 14.848-120.3712l1.6384-10.1888 77.7728 49.8176a32.3584 32.3584 0 0 0 17.3056 5.0688z m0 0"  horiz-adv-x="1024" />

    
    <glyph glyph-name="suoping" unicode="&#58904;" d="M513.024 813.568c-235.008 0-425.472-190.464-425.472-425.472s190.464-425.472 425.472-425.472c235.008 0 425.472 190.464 425.472 425.472s-190.464 425.472-425.472 425.472z m0-924.672c-275.456 0-499.2 223.744-499.2 499.2S237.056 887.296 513.024 887.296s499.2-223.744 499.2-499.2-223.744-499.2-499.2-499.2zM690.176 482.304H401.408V536.576c0 61.952 50.176 112.128 112.128 112.128 57.344 0 106.496-45.056 111.616-102.4 1.536-19.968 19.456-34.304 38.912-32.256 19.968 1.536 34.304 18.944 32.256 38.912-8.704 93.696-89.088 167.424-183.296 167.424-101.376 0-183.808-82.432-183.808-183.808v-56.832c-44.032-9.216-77.312-48.64-77.312-95.232v-185.344c0-53.76 43.52-97.28 97.28-97.28h340.48c53.76 0 97.28 43.52 97.28 97.28V385.024c0.512 53.248-43.52 97.28-96.768 97.28z m25.6-283.136c0-14.336-11.264-25.6-25.6-25.6H349.184c-14.336 0-25.6 11.264-25.6 25.6V385.024c0 14.336 11.264 25.6 25.6 25.6h340.48c14.336 0 25.6-11.264 25.6-25.6v-185.856z"  horiz-adv-x="1024" />

    
    <glyph glyph-name="quanping1" unicode="&#59527;" d="M674.88 504.96l257.664 256.768-0.896-145.472c-0.32-12.096 9.408-22.72 21.504-22.4h15.36c12.16 0.384 22.208 7.488 22.4 19.712l0.704 216.704 0.384 11.52c0.192 6.016-1.28 11.52-5.12 15.424a20.736 20.736 0 0 1-15.488 6.208l-11.008-0.192c-0.192 0-0.32 0-0.512-0.128l-214.912 0.832a23.104 23.104 0 0 1-22.336-22.528v-15.36a24.512 24.512 0 0 1 25.216-22.4l141.568-0.384-256.896-255.872a29.952 29.952 0 1 1 42.368-42.368zM350.144 263.04l-257.792-256 0.896 144.768a21.504 21.504 0 0 1-21.504 22.4h-16.32c-12.032-0.384-22.144-7.488-22.4-19.712l-0.64-216.832-0.384-11.52c-0.192-6.08 1.28-11.52 5.12-15.488 3.968-3.84 9.28-6.4 15.488-6.208l11.008 0.192c0.128 0 0.32 0 0.512 0.192l215.808-0.896a23.104 23.104 0 0 1 22.336 22.528v15.424a24.512 24.512 0 0 1-25.216 22.4l-141.568 0.32L392.192 220.48a30.016 30.016 0 0 1 0 42.432 29.248 29.248 0 0 1-42.048 0z m641.472-325.248l-0.512 216.832c-0.384 12.032-10.304 19.328-22.4 19.712h-15.36c-12.16 0.32-21.696-10.304-21.504-22.4l0.896-145.472L674.88 263.04a30.016 30.016 0 1 1-42.368-42.432l256.704-255.872-141.568-0.32a24.768 24.768 0 0 1-25.216-22.4v-15.36c0.384-12.16 10.304-22.208 22.4-22.592l214.848 0.896c0.192 0 0.384-0.192 0.512-0.192l11.008-0.192a20.352 20.352 0 0 1 15.488 6.208c3.84 3.904 5.312 9.408 5.12 15.488l-0.192 11.52zM135.68 803.2l141.632 0.384a24.768 24.768 0 0 1 25.216 22.4v15.36A23.36 23.36 0 0 1 280.064 864l-215.936-0.896-0.512 0.128-11.008 0.192a20.352 20.352 0 0 1-15.488-6.208c-3.84-3.84-5.312-9.408-5.12-15.424l0.32-11.52 0.512-216.832c0.192-12.096 10.304-19.392 22.4-19.712h16.32c12.032-0.384 21.632 10.24 21.44 22.4l-0.704 144.768 257.664-256.064a29.952 29.952 0 1 1 42.368 42.432l-256.768 256z"  horiz-adv-x="1024" />

    
    <glyph glyph-name="tuichuquanping1" unicode="&#59137;" d="M1024 536c0 22-18 40-40 40H757L993.4 812.3c15.6 15.6 15.6 41 0 56.6-15.6 15.6-41 15.6-56.6 0L704 636.1V856c0 22-18 40-40 40s-40-18-40-40v-320c0-22 18-40 40-40h320c22 0 40 18 40 40zM400 536V856c0 22-18 40-40 40s-40-18-40-40v-219.9L87.3 868.9c-15.6 15.6-41 15.6-56.6 0-15.6-15.6-15.6-41 0-56.6L267 576H40c-22 0-40-18-40-40s18-40 40-40h320c22 0 40 18 40 40zM1024 232c0 22-18 40-40 40H664c-22 0-40-18-40-40v-320c0-22 18-40 40-40s40 18 40 40V131.9l232.7-232.8c15.6-15.6 41-15.6 56.6 0 15.6 15.6 15.6 41 0 56.6L757 192h227c22 0 40 18 40 40zM400-88V232c0 22-18 40-40 40H40c-22 0-40-18-40-40s18-40 40-40h227L30.7-44.3c-15.6-15.6-15.6-41 0-56.6 15.6-15.6 41-15.6 56.6 0L320 131.9V-88c0-22 18-40 40-40s40 18 40 40z"  horiz-adv-x="1024" />

    
    <glyph glyph-name="shousuo" unicode="&#58896;" d="M1151.1808 740.352H77.6192A77.7216 77.7216 0 0 0 0 818.176C0 861.184 34.816 896 77.6192 896h1073.5616c42.9056 0 77.6192-34.816 77.6192-77.824s-34.816-77.824-77.6192-77.824z m0-434.176H77.6192A77.7216 77.7216 0 0 0 0 384c0 43.008 34.816 77.824 77.6192 77.824h1073.5616c42.9056 0 77.6192-34.816 77.6192-77.824s-34.816-77.824-77.6192-77.824z m0-434.176H77.6192A77.7216 77.7216 0 0 0 0-50.176c0 43.008 34.816 77.824 77.6192 77.824h1073.5616c42.9056 0 77.6192-34.816 77.6192-77.824s-34.816-77.824-77.6192-77.824z"  horiz-adv-x="1228" />

    
    <glyph glyph-name="shousuo1" unicode="&#59161;" d="M0 810.666667c0 51.2 34.133333 85.333333 85.333333 85.333333s85.333333-34.133333 85.333334-85.333333v-853.333334c0-51.2-34.133333-85.333333-85.333334-85.333333s-85.333333 34.133333-85.333333 85.333333V810.666667zM426.666667 810.666667c0 51.2 34.133333 85.333333 85.333333 85.333333s85.333333-34.133333 85.333333-85.333333v-853.333334c0-51.2-34.133333-85.333333-85.333333-85.333333s-85.333333 34.133333-85.333333 85.333333V810.666667zM853.333333 810.666667c0 51.2 34.133333 85.333333 85.333334 85.333333s85.333333-34.133333 85.333333-85.333333v-853.333334c0-51.2-34.133333-85.333333-85.333333-85.333333s-85.333333 34.133333-85.333334 85.333333V810.666667z"  horiz-adv-x="1024" />

    
    <glyph glyph-name="disanfangyonghu" unicode="&#58929;" d="M772.906237 449.69044l-21.994864-22.281862 22.035864 22.281862zM142.74712 504.9461A433.841327 433.841327 0 0 0 364.827752 773.761443a426.79737 426.79737 0 0 0 346.352866 16.383899 102.726367 102.726367 0 0 1 45.34172-109.116327c36.494775-22.936859 83.393486-20.151876 116.979279 7.044956A102.930366 102.930366 0 0 1 905.61442 801.85927a101.374375 101.374375 0 0 1-95.680411 68.361579c-19.005883 0-37.641768-5.447966-53.739669-15.605904a502.161906 502.161906 0 0 1-425.485378-12.287924A510.680853 510.680853 0 0 1 64.677601 506.706089a125.499227 125.499227 0 0 0 78.02852-2.047988v0.286999zM687.095766-30.434601c-223.146625-71.556559-462.022153 49.969692-537.796686 273.690313a102.726367 102.726367 0 0 1 48.864699 120.339259 101.333376 101.333376 0 0 1-107.559337 71.514559A101.866372 101.866372 0 0 1 0.412997 342.295102 102.27537 102.27537 0 0 1 73.319548 235.063763 510.353855 510.353855 0 0 1 330.831961-73.360337a502.161906 502.161906 0 0 1 398.821543-24.124851 128.039211 128.039211 0 0 0-42.556738 67.049587zM1063.267448 384.196844a512.728841 512.728841 0 0 1-92.44543 294.908183 127.138217 127.138217 0 0 0-56.523652-52.674676 438.265299 438.265299 0 0 0-28.343825-523.624773l6.839958-5.610966a100.923378 100.923378 0 0 1-121.281253-49.151697 102.971365 102.971365 0 0 1 27.60683-129.021205 100.59638 100.59638 0 0 1 130.537195 5.774965 103.053365 103.053365 0 0 1 16.3429 130.947193A512.606841 512.606841 0 0 1 1063.267448 384.196844zM598.296313 282.167473c0-78.232518 173.175933-56.155654 173.175933-141.31013 0-62.504615-210.530703-63.199611-246.779479-62.339616-34.651786 0.777995-210.858701 7.781952-181.613881 78.109519 26.254838 63.117611 205.943731 62.216617 162.812997 155.112044-34.814785 74.914538-82.81949 120.257259-82.81949 209.507709 0 91.830434 34.609787 176.370913 136.026162 169.570955 93.509424-6.347961 125.745225-77.494522 125.745225-165.351981 0-38.91176-6.020963-77.86452-22.649861-113.212302C642.122043 369.656933 598.296313 332.383163 598.296313 282.167473z"  horiz-adv-x="1063" />

    
    <glyph glyph-name="yichangrizhi" unicode="&#58909;" d="M851.2 780.8v32c-12.8 19.2-44.8 32-64 32H108.8C70.4 844.8 32 806.4 32 768v-800c12.8-19.2 19.2-38.4 44.8-38.4H512C448-12.8 396.8 70.4 390.4 160H217.6c-25.6 0-44.8 19.2-44.8 44.8s19.2 32 44.8 32h172.8c6.4 38.4 12.8 76.8 32 108.8H217.6c-19.2 0-38.4 19.2-38.4 38.4 0 25.6 12.8 44.8 38.4 44.8h275.2c57.6 57.6 147.2 89.6 236.8 89.6 44.8 0 83.2-12.8 121.6-25.6v288zM704 576c0-25.6-12.8-38.4-38.4-38.4h-448c-25.6 0-38.4 19.2-38.4 38.4 0 25.6 12.8 38.4 38.4 38.4h448c25.6 0 38.4-12.8 38.4-38.4zM864 403.2c-38.4 19.2-76.8 32-128 32-25.6 0-57.6-6.4-83.2-12.8-44.8-19.2-83.2-44.8-115.2-83.2-25.6-32-44.8-70.4-51.2-115.2 0-12.8-6.4-32-6.4-51.2v-32c12.8-121.6 108.8-211.2 230.4-224h51.2c32 0 57.6 12.8 89.6 25.6 83.2 38.4 147.2 128 147.2 230.4C992 275.2 940.8 358.4 864 403.2z m-128-384c-19.2 0-32 12.8-32 32s12.8 32 32 32 32-12.8 32-32-12.8-32-32-32z m32 134.4c0-19.2-12.8-32-32-32s-32 12.8-32 32V300.8c0 19.2 19.2 38.4 38.4 38.4 12.8 0 19.2-6.4 25.6-12.8 0-6.4 6.4-12.8 6.4-25.6L768 153.6z"  horiz-adv-x="1024" />

    
    <glyph glyph-name="yunwei" unicode="&#58925;" d="M928.190006-128h-744.893378v97.089005h229.350811l4.894175 91.132794H0V896h1116.524371v-835.778201H697.819575v-91.132794h230.370431v-97.089005zM555.394199 757.932071v-558.262186h97.425072v558.262186z m186.562674-139.565546V199.67314799999997h97.426703V618.366525z m-373.122085-94.052986v-324.646916h97.425072v324.646916z m-186.55778-138.554083V199.67314799999997h97.425072V385.759456z"  horiz-adv-x="1116" />

    
    <glyph glyph-name="guizeyinqing" unicode="&#58948;" d="M469.333333 190.293333 469.333333 348.16c0 18.773333-12.8 37.546667-31.573333 37.546667l-145.066667 0c-9.386667 0-17.92 2.56-24.746667 8.533333L256 406.186667C250.026667 413.013333 247.466667 420.693333 247.466667 430.08l0 145.066667c0 18.773333-17.92 32.426667-36.693333 32.426667l-157.866667 0c-18.773333 0-40.96-12.8-40.96-32.426667l0-157.866667c0-18.773333 22.186667-31.573333 40.96-31.573333L209.92 385.706667c9.386667 0 17.92-5.12 24.746667-11.093333l1.706667-0.853333C242.346667 366.933333 247.466667 356.693333 247.466667 348.16l0-157.866667c0-18.773333 13.653333-40.106667 32.426667-40.106667l157.866667 0C456.533333 149.333333 469.333333 170.666667 469.333333 190.293333zM982.186667 385.706667l-145.066667 0c-9.386667 0-17.92 3.413333-24.746667 10.24l-13.653333 12.8c-6.826667 6.826667-11.093333 15.36-11.093333 24.746667l0 145.066667c0 18.773333-13.653333 29.866667-33.28 29.866667L597.333333 608.426667c-18.773333 0-30.72-11.093333-30.72-29.866667l0-157.866667c0-18.773333 11.946667-34.133333 30.72-34.133333l157.866667 0c9.386667 0 17.92-4.266667 24.746667-10.24l-0.853333 0c6.826667-6.826667 9.386667-15.36 9.386667-24.746667l0-157.866667c0-18.773333 17.066667-29.013333 35.84-29.013333l157.866667 0c18.773333 0 27.306667 9.386667 27.306667 29.013333L1009.493333 350.72C1009.493333 369.493333 1000.96 385.706667 982.186667 385.706667zM320 426.666667 477.866667 426.666667c18.773333 0 32.426667 18.773333 32.426667 37.546667L510.293333 622.933333c0 9.386667 4.266667 17.92 11.093333 24.746667l0.853333 2.56c6.826667 6.826667 15.36 12.8 24.746667 12.8l157.866667 0c18.773333 0 40.96 10.24 40.96 29.013333l0 157.866667c0 18.773333-22.186667 34.986667-40.96 34.986667L546.986667 884.906667c-18.773333 0-36.693333-15.36-36.693333-34.986667l0-145.066667c0-9.386667-2.56-17.92-9.386667-24.746667l-11.946667-10.24c-6.826667-6.826667-14.506667-7.68-23.893333-7.68l-145.066667 0c-18.773333 0-31.573333-20.48-31.573333-40.106667l0-157.866667C288.426667 445.44 300.373333 426.666667 320 426.666667zM709.12 343.893333 551.253333 343.893333c-18.773333 0-40.96-18.773333-40.96-37.546667l0-145.066667c0-9.386667-0.853333-17.92-6.826667-24.746667l-11.093333-15.36c-6.826667-6.826667-13.653333-12.8-23.04-12.8L324.266667 108.373333c-18.773333 0-35.84-10.24-35.84-29.013333l0-157.866667c0-18.773333 16.213333-34.986667 35.84-34.986667l157.866667 0c18.773333 0 28.16 15.36 28.16 34.986667L510.293333 78.506667c0 9.386667 6.826667 17.92 12.8 24.746667l1.706667-2.56c6.826667 6.826667 17.066667 7.68 25.6 7.68l157.866667 0c18.773333 0 36.693333 21.333333 36.693333 40.106667L744.96 306.346667C746.666667 325.12 728.746667 343.893333 709.12 343.893333z"  horiz-adv-x="1024" />

    
    <glyph glyph-name="wanshandejiankongherizhifuwu" unicode="&#59167;" d="M734.848461 593.105458c-1.103124 2.695389-2.846838 4.889357-4.708232 7.089466-0.348947 0.443092-0.522909 0.951675-0.929162 1.344624-0.63752 0.842181-0.350994 2.030239-1.160429 2.813069-1.629103 1.573845-4.013407 1.24127-5.931083 2.365884h-0.059352c-1.972934 1.069355-3.950985 1.854231-6.158257 2.473331H715.725938c-2.495844 0.672312-4.999874 1.521656-7.730055 1.521656-0.522909 0-0.929162-0.229221-1.394767-0.286525-0.697895 0-1.278109 0.397043-2.035356 0.286525H591.745229c-16.042371 0-29.060873-12.490475-29.060873-27.961842 0-15.46625 15.636119-26.213012 58.123792-27.956725h16.276708l-105.82214-101.792361-95.009887 91.385337c-1.073448 1.307785-2.555196 3.007497-3.733021 3.997034-6.222725 5.230118-11.764951 7.532557-18.935258 7.42204-7.103792-0.344854-11.506055-0.657986-17.854647-6.398734-1.171686-1.059122-3.88447-3.77907-4.813632-5.02034L276.703019 434.529837c-10.870582-10.519588-10.870582-27.507494 0-37.971823 10.927887-10.464329 28.597315-10.464329 39.467897 0l97.414657 93.720521 97.471962-93.720521c5.568832-5.361101 12.922311-7.967462 20.231787-7.836479 7.316639-0.132006 14.668071 2.475378 20.234857 7.836479l127.410831 122.569569v-48.037062c0-15.578814 13.020548-28.126594 29.060873-28.126595 16.042371 0 29.062919 12.547781 29.062919 28.126595V582.585871v0.165775a25.486464 25.486464 0 0 1-2.210341 10.353812zM187.035814 283.776368h412.988985v-45.88505H187.035814zM886.055255 834.425619H130.440841c-32.082696 0-58.120722-25.200962-58.120722-56.251141v-782.300193c0-31.052227 26.03905-56.251142 58.120722-56.251141h755.614414c32.082696 0 58.120722 25.198915 58.120722 56.251141V778.174478c0.001023 31.049157-26.038026 56.251142-58.120722 56.251141z m12.235672-848.920495h-780.086781V742.650403h780.086781v-757.145279zM187.035814 169.05965h596.536348v-45.890167h-596.536348z"  horiz-adv-x="1024" />

    
    <glyph glyph-name="quanxianguanli" unicode="&#58894;" d="M738.451207 425.905561c56.948583 0 110.136411-17.729276 153.116474-48.35257 42.442812 48.889822 68.23085 112.285414 68.23085 181.590766 0 153.653725-125.716684 277.758657-280.982162 277.758656S397.834208 712.797482 397.834208 559.143757c0-17.192025 1.611752-34.38405 4.835257-51.038825L60.440714 170.174187v-166.547744c0-30.623295 25.250787-55.336831 56.411332-55.336831h56.411333v55.336831h112.285414v111.210913h112.285415v111.210913H481.10808c27.937041 114.434418 132.163694 199.857293 257.343127 199.857292z m24.713536 299.248689c46.740818 0 84.348374-37.070304 84.348373-83.273872s-37.607555-83.273872-84.348373-83.273872-84.348374 37.070304-84.348374 83.273872 37.607555 83.273872 84.348374 83.273872z m186.426023-515.760756h-41.905561c-3.760756 8.596013-9.670514 25.788038-16.654775 38.144806l29.548794 28.474292c9.133263 9.133263 9.133263 23.639035 0 32.772298l-33.8468 33.309549c-9.133263 9.133263-24.713536 9.133263-33.8468 0l-27.937041-29.548794c-12.356768 6.98426-30.086044 12.356768-38.682056 16.654775v41.36831c0 12.894019-13.96852 23.639035-27.39979 23.639035h-47.81532c-13.43127 0-27.39979-10.745016-27.399791-23.639035v-41.36831c-8.596013-3.760756-26.325289-9.670514-38.682056-16.654775l-29.011543 29.011543c-9.133263 9.133263-24.176285 9.133263-33.309549 0l-33.309548-33.309549c-9.133263-9.133263-9.133263-24.176285 0-33.309549l29.548793-27.39979c-6.98426-12.356768-12.894019-30.086044-16.654774-38.144806h-41.905562c-13.43127 0-23.639035-13.96852-23.639034-26.862539v-47.278069c0-12.894019 10.745016-26.862539 23.639034-26.86254h41.905562c3.760756-8.596013 9.670514-25.788038 16.654774-38.144806l-29.548793-28.474291c-9.133263-9.133263-9.133263-23.639035 0-32.772298l33.846799-33.309549c9.133263-9.133263 24.713536-9.133263 33.8468 0l27.937041 29.548793c12.356768-6.98426 30.086044-12.356768 38.682056-16.654774v-41.368311c0-12.894019 13.96852-23.639035 27.399791-23.639034h47.81532c13.43127 0 27.39979 10.745016 27.39979 23.639034v41.368311c8.596013 3.760756 26.325289 9.670514 38.682056 16.654774l29.011543-29.011542c9.133263-9.133263 24.176285-9.133263 33.309549 0l33.846799 33.309548c9.133263 9.133263 9.133263 24.176285 0 33.309549l-29.548793 27.39979c6.98426 12.356768 12.894019 30.086044 16.654774 38.144806h41.905562c13.43127 0 23.639035 13.96852 23.639034 26.86254v47.278069c0 12.894019-10.745016 26.862539-24.176285 26.862539zM735.227702 52.516264c-59.097587 0-107.450157 47.81532-107.450157 106.375656s48.352571 106.375656 107.450157 106.375656c59.634837 0 107.450157-47.278069 107.450157-106.375656s-47.81532-106.375656-107.450157-106.375656z"  horiz-adv-x="1024" />

    
    <glyph glyph-name="jiaoseguanli" unicode="&#58885;" d="M441.6 358.4c51.2 0 102.4 12.8 140.8 38.4l6.4 6.4c76.8 44.8 128 128 128 224 0 147.2-128 268.8-281.6 268.8-147.2 0-268.8-121.6-268.8-268.8 0-147.2 121.6-268.8 275.2-268.8z m281.6-364.8h-64v224H640v19.2h83.2v-115.2l102.4 115.2h102.4l-204.8-243.2z m38.4 396.8c-147.2 0-262.4-115.2-262.4-256s115.2-256 262.4-256 262.4 115.2 262.4 256-121.6 256-262.4 256zM467.2 8.96C448 47.36 441.6 92.16 441.6 130.56s6.4 83.2 25.6 128c12.8 25.6 19.2 44.8 38.4 64H345.6C153.6 322.56 0 168.96 0-23.04v-19.2C0-125.44 153.6-125.44 345.6-125.44h224c-12.8 12.8-25.6 19.2-38.4 32-25.6 32-51.2 64-64 102.4"  horiz-adv-x="1024" />

    
    <glyph glyph-name="sousuoxiawu-" unicode="&#58899;" d="M992.256 463.872l-200.704 186.88L544.768 880.64l-1.024 1.024c-8.192 7.68-18.944 11.776-31.232 11.776s-23.552-4.608-31.744-12.288L233.472 651.264 32.768 464.896c-8.192-7.68-13.312-18.432-13.312-30.208 0-23.552 19.968-42.496 44.544-42.496h70.656v-377.344c0-76.288 62.464-138.752 138.752-138.752h96.768v249.344c0 56.32 46.08 104.448 104.448 104.448h81.408c58.368 0 104.448-48.128 104.448-104.448v-249.344h89.6c76.288 0 138.752 62.464 138.752 138.752V392.192h70.656c24.576 0 44.544 18.944 44.544 42.496 1.536 10.752-3.584 21.504-11.776 29.184z"  horiz-adv-x="1024" />

    
    <glyph glyph-name="yunweidaping" unicode="&#59012;" d="M1221.973333 820.906667c6.826667-6.826667 6.826667-20.48 6.826667-27.306667v-662.186667c0-13.653333-6.826667-27.306667-13.653333-40.96-27.306667-34.133333-61.44-54.613333-109.226667-54.613333H655.36v-75.093333H969.386667c27.306667-6.826667 40.96-34.133333 27.306666-54.613334-6.826667-13.653333-20.48-20.48-34.133333-20.48h-682.666667H273.066667c-27.306667 6.826667-40.96 34.133333-27.306667 54.613334 6.826667 13.653333 20.48 20.48 34.133333 20.48H580.266667v75.093333H122.88c-54.613333 0-95.573333 27.306667-116.053333 75.093333-6.826667 6.826667-6.826667 20.48-6.826667 27.306667V793.6v6.826667C0 820.906667 6.826667 834.56 20.48 848.213333 47.786667 882.346667 81.92 896 122.88 896H1105.92c54.613333 0 95.573333-27.306667 116.053333-75.093333zM518.826667 520.533333c-27.306667 0-47.786667-20.48-47.786667-47.786666v-204.8h95.573333v204.8c0 27.306667-20.48 47.786667-47.786666 47.786666zM327.68 438.613333c-27.306667 0-47.786667-20.48-47.786667-47.786666v-116.053334h95.573334V390.826667c0 20.48-27.306667 47.786667-47.786667 47.786666z m382.293333 163.84c-27.306667 0-47.786667-20.48-47.786666-47.786666v-286.72h95.573333V554.666667c0 27.306667-20.48 47.786667-47.786667 47.786666z m191.146667 81.92c-27.306667 0-47.786667-20.48-47.786667-47.786666v-368.64h95.573334V636.586667c0 27.306667-20.48 47.786667-47.786667 47.786666z"  horiz-adv-x="1228" />

    
    <glyph glyph-name="intelligentterminalmanage" unicode="&#58880;" d="M950.857143 455.460571V749.714286a73.142857 73.142857 0 0 1-73.142857 73.142857H146.285714a73.142857 73.142857 0 0 1-73.142857-73.142857v-512a73.142857 73.142857 0 0 1 73.142857-73.142857h219.428572c0-25.088 2.56-49.517714 7.387428-73.142858H146.285714a146.285714 146.285714 0 0 0-146.285714 146.285715V749.714286a146.285714 146.285714 0 0 0 146.285714 146.285714h731.428572a146.285714 146.285714 0 0 0 146.285714-146.285714v-367.689143a366.226286 366.226286 0 0 1-73.142857 73.435428zM219.428571 457.142857a73.142857 73.142857 0 0 0-73.142857 73.142857V676.571429a73.142857 73.142857 0 0 0 73.142857 73.142857h146.285715a73.142857 73.142857 0 0 0 73.142857-73.142857v-146.285715a73.142857 73.142857 0 0 0-73.142857-73.142857H219.428571z m146.285715 219.428572H219.428571v-146.285715h146.285715V676.571429zM146.285714 347.42857100000003a36.571429 36.571429 0 0 0 36.571429 36.571429h257.682286c-17.188571-22.674286-32.402286-46.811429-43.958858-73.142857H182.857143a36.571429 36.571429 0 0 0-36.571429 36.571428zM548.571429 530.285714H731.428571a363.812571 363.812571 0 0 1-206.336-64A35.913143 35.913143 0 0 0 512 493.714286a36.571429 36.571429 0 0 0 36.571429 36.571428z m327.826285-30.208A362.934857 362.934857 0 0 1 731.428571 530.285714h109.714286c17.92 0 32.182857-13.165714 35.254857-30.208zM548.571429 676.571429h292.571428a36.571429 36.571429 0 0 0 0-73.142858h-292.571428a36.571429 36.571429 0 0 0 0 73.142858z m-70.509715-365.714286a73.142857 73.142857 0 0 0 99.913143 26.770286c4.022857-2.340571 6.582857-5.924571 9.947429-8.850286 21.284571 18.432 45.714286 33.28 72.923428 42.569143C660.041143 375.588571 658.285714 379.53828599999997 658.285714 384a73.142857 73.142857 0 0 0 146.285715 0c0-4.461714-1.755429-8.411429-2.56-12.653714a219.428571 219.428571 0 0 0 72.850285-42.569143c3.437714 2.925714 5.997714 6.509714 10.020572 8.850286a73.142857 73.142857 0 0 0 73.142857-126.683429c-3.730286-2.194286-7.826286-2.56-11.776-3.949714 2.706286-13.750857 4.608-27.867429 4.608-42.422857 0-14.628571-1.901714-28.672-4.608-42.422858 3.949714-1.389714 8.045714-1.755429 11.776-3.949714a73.142857 73.142857 0 0 0-73.142857-126.683428c-4.022857 2.340571-6.582857 5.924571-10.020572 8.777142-21.211429-18.358857-45.641143-33.206857-72.850285-42.496 0.804571-4.315429 2.56-8.192 2.56-12.653714a73.142857 73.142857 0 0 0-146.285715 0c0 4.461714 1.755429 8.338286 2.56 12.653714a221.476571 221.476571 0 0 0-72.923428 42.496c-3.364571-2.852571-5.924571-6.436571-9.947429-8.777142a73.142857 73.142857 0 0 0-73.142857 126.683428c3.730286 2.194286 7.826286 2.56 11.776 3.949714A219.062857 219.062857 0 0 0 512 164.57142899999997c0 14.555429 1.901714 28.672 4.608 42.422857-3.949714 1.389714-8.045714 1.755429-11.776 3.949714A73.142857 73.142857 0 0 0 478.061714 310.85714299999995zM731.428571 18.285713999999984a146.285714 146.285714 0 1 1 0.073143 292.498286A146.285714 146.285714 0 0 1 731.428571 18.285713999999984z"  horiz-adv-x="1024" />

    
    <glyph glyph-name="-guizeyinqinggongzuotai-" unicode="&#58997;" d="M396.986968 896h536.727482c6.389613 0 19.168839-6.389613 25.558452-12.779226 6.389613-12.779226 0-25.558452 0-44.72729v-728.415869c0-6.389613 0-19.168839-6.389613-25.558451-6.389613-6.389613-19.168839-6.389613-31.948064-6.389613-31.948064 0-709.24703 6.389613-760.363934 0-44.72729-6.389613-70.285742-51.116903-57.506516-95.844194 6.389613-31.948064 44.72729-57.506516 76.675355-51.116903h722.026256V1.454196c0 12.779226 12.779226 25.558452 25.558452 25.558452s25.558452-12.779226 25.558451-25.558452v-102.233806c0-19.168839-12.779226-31.948064-31.948064-25.558452H141.402453c-38.337677 6.389613-76.675355 31.948064-89.454581 70.285742-12.779226 19.168839-12.779226 38.337677-19.168838 57.506516V761.818129c6.389613 19.168839 6.389613 38.337677 12.779225 51.116903 19.168839 38.337677 51.116903 63.896129 95.844194 76.675355 6.389613 0 19.168839 0 25.558451 6.389613v-408.935225c31.948064 38.337677 108.623419 115.013032 108.623419 115.013032L384.207742 487.064775"  horiz-adv-x="1024" />

    
    <glyph glyph-name="jiankong" unicode="&#58883;" d="M925.27851141 437.2724243a401.2235283 401.2235283 0 0 1-403.46024771 402.34249481 401.2235283 401.2235283 0 0 1-403.46146133-402.34249481c0-175.10491022 112.15879585-324.11192889 268.99493926-379.97287349C301.47652267 27.535284150000052 245.36557037-28.45066429999997 245.36557037-91.76936296999997h541.65504c0 63.38059378-52.25767822 119.30464711-134.40341334 149.06891378C813.30661452 113.09860030000004 925.27729778 262.10561896 925.27729778 437.2724243zM529.33669925 154.10957273999998c-115.88706608 0-213.00899082 96.93502578-213.0089908 212.38761244s97.12192475 212.3245037 213.0089908 212.3245037A212.57329778 212.57329778 0 0 0 742.34447645 366.49718518a212.63519289 212.63519289 0 0 0-213.0077772-212.38761244zM521.8182637 459.58015051c-56.04905718 0-104.51657008-48.46751289-104.51657007-104.267776 0-59.58921482 48.46751289-104.267776 104.51657007-104.267776a104.267776 104.267776 0 0 1 0 208.535552z"  horiz-adv-x="1024" />

    
    <glyph glyph-name="moxingxunlian" unicode="&#58966;" d="M413.193448 323.463405l180.707444-451.463405L214.75762 22.585113 26.486419 420.597968z m34.501348 7.006427l177.416545-449.60564 111.465893 117.729215-170.569355 433.124611z m-414.016173 114.119842L416.617043 353.293801 523.863156 458.098279l-379.514825 93.843666z m724.528302-139.995853l-149.921625 96.471076L711.205474 133.414058zM209.768194 564.256272l276.594651-74.310595L216.243832 661.815468z m692.043956-368.899025l95.701431 318.075886-204.354137-203.478333-66.932614-196.710761 25.849471-66.879536z m-240.315156 208.998548l112.819407-76.115281 94.480613 94.480614-112.819407 76.115281z m-142.649803 94.480614L631.586979 422.774207l94.480614 94.507153-112.739789 76.16836zM378.71864 590.79577l112.819407-76.14182 94.480614 94.507153-112.819407 76.009123zM233.945677 686.629898l112.819407-76.14182L441.219158 704.915613l-112.819407 76.194899z m541.405764-167.198838l112.819407-76.115281L982.571843 537.716774l-112.819407 76.115281z m-142.676343 94.480613L745.441426 537.716774l94.480614 94.507153L727.129173 708.286129z m-140.12855 91.773585l112.819407-76.14182 94.480614 94.507153-112.872486 76.009123zM347.614348 801.519386l112.819407-76.14182 94.454074 94.480614L442.17458 896z"  horiz-adv-x="1024" />

    
    <glyph glyph-name="xitongguanli" unicode="&#58884;" d="M837.696629 255.978132c-3.598858 3.198985-7.297684 6.298001-11.096478 9.297049-31.589974 23.992385-43.286262 50.184072-36.888292 93.470334 22.792766 158.849584-106.566178 289.708052-236.524931 303.70361-163.947966 17.494448-299.205037-85.272936-320.198375-242.423059C208.396359 231.985747 374.643595 74.835623 561.484295 110.524296c20.993337 4.098699 35.088863-0.59981 49.184389-15.794986 9.896859-10.496669 22.192956-19.193908 37.488102-32.189784-42.78642-22.192956-43.286262-57.181851-40.986991-93.470334 2.29927-35.588705-4.098699-69.477949-39.787372-83.473507-38.687721-15.794987-81.973983-18.694067-118.262466 4.698509-16.394797 10.496669-25.192004 37.388134-31.689942 58.38147-4.698509 15.794987-0.59981 35.088863-1.199619 52.583311-0.59981 28.091084-13.395748 48.484612-39.287531 59.58109-25.791814 11.096478-49.684231 6.397969-70.277695-13.395748-12.895907-12.296097-24.592195-25.092036-37.987944-36.788324-25.192004-22.792766-60.280868-29.790545-86.072682-11.096478-22.692798 16.594733-42.886389 36.488419-59.781026 59.081248-18.194225 24.492227-11.096478 61.88036 11.096478 85.872746 11.796256 12.795939 25.192004 24.492227 37.488102 36.788324 18.194225 18.094257 23.992385 40.287214 16.394797 64.77944-7.097747 24.29229-28.091084 41.786738-53.183121 44.385913-20.493496 2.89908-40.986991 2.29927-61.480487 2.89908-44.585849 2.29927-69.677885 27.891148-71.977156 71.877187-0.59981 13.395748-0.59981 27.491275 0 40.887023 1.699461 45.485564 30.390355 73.576648 76.075855 74.776267 16.394797 0.59981 33.389403-0.59981 49.884168 0.59981 27.491275 1.699461 49.18439 14.595368 59.081248 40.287214 9.996827 25.691846 4.698509 49.684231-15.794987 69.577917-11.096478 10.896542-21.99302 21.99302-32.789593 33.189466-4.898445 4.698509-9.197081 9.996827-12.795939 15.794987-23.992385 39.787372-9.996827 79.474776 44.485881 123.860689 31.589974 25.691846 69.677885 24.492227 100.66805-3.49889 12.795939-11.696288 25.192004-24.492227 37.987943-36.788324 20.493496-18.694067 45.085691-23.292607 70.877505-12.296097 23.992385 10.496669 37.987943 29.890513 37.488102 57.281819 0 18.694067 0 36.788324 1.199619 55.482391 2.399239 35.688673 25.791814 63.679789 60.880678 68.978108 23.092671 3.49889 46.585215 3.49889 69.677885 0 32.789593-4.698509 56.781978-33.889244 58.581407-67.778488 1.199619-19.293876-1.199619-39.187563 0.59981-58.381471 2.29927-26.791497 14.595368-47.884802 41.586801-58.381471s49.784199-3.49889 69.677886 15.794987c8.197398 8.197398 16.394797 16.894638 24.592194 25.092036 5.298318 5.19835 11.096478 11.096478 16.994607 15.695019 39.187563 29.790545 82.473824 17.594416 129.958753-37.388134 28.790862-33.189466 26.991433-72.976838-4.698509-104.566812-12.296097-12.296097-25.791814-24.492227-36.288483-37.987943-16.894638-20.993337-22.792766-46.185342-9.896858-71.277378 11.696288-23.292607 32.789593-35.588705 59.681058-35.588705 16.394797 0 33.389403 0.59981 49.784199 0 39.787372-1.799429 67.878457-25.092036 72.576965-63.079979 2.89908-21.093305 2.89908-43.286262 0-64.279599-5.298318-37.388134-34.489054-61.380519-72.576965-63.07998-11.796256-0.59981-23.492544-0.59981-35.188831 0-30.590291 3.398921-55.782296-5.898128-75.775951-32.189783z m-523.833744 180.442731c23.992385-25.092036 47.98477-50.783882 72.576966-75.875919 46.885119-47.284993 107.765797-48.484612 153.351329-4.098699 46.885119 45.585532 45.6855 105.666463-2.89908 154.151075-25.192004 24.492227-51.48366 47.884802-74.876236 75.376077 63.279916 18.694067 120.561736 8.797208 171.545554-27.491275 81.374173-56.68201 111.864496-152.451614 78.475094-245.322139-6.497938-17.494448-1.199619-26.791497 9.896859-37.388133 60.880678-59.58109 121.261514-118.56237 181.542381-178.643302 34.489054-34.489054 32.789593-75.376077-3.498889-106.866082-28.690894-25.092036-64.979377-23.992385-94.27008 4.698508-60.880678 59.181217-121.161545 118.962243-180.842604 179.34308-14.095526 14.095526-24.592195 17.494448-45.085691 10.596637C499.603934 158.009226 427.026969 174.304054 366.046323 232.185683c-57.381788 54.282772-74.276426 122.661069-60.880677 198.536988 2.799112 2.199302 5.698191 3.898763 8.697239 5.698192z m540.328509-356.286921c-20.493496-2.399239-33.989212-12.795939-35.788641-34.489054-1.699461-19.193908 16.394797-37.388134 36.388451-37.388134 9.796891 0 19.09394 3.998731 25.891782 11.096479 6.697874 7.097747 10.296732 16.594733 9.896859 26.291655-1.299588 22.792766-14.795304 32.789593-36.388451 34.489054z m0 0"  horiz-adv-x="1024" />

    
    <glyph glyph-name="rizhiguanli" unicode="&#59051;" d="M878.751857 267.636327a39.997688 39.997688 0 0 0-39.997688 39.997688V732.009481a37.197849 37.197849 0 0 1-39.997688 31.99815h-42.397549a39.997688 39.997688 0 0 0 0 79.995375h42.397549a116.393271 116.393271 0 0 0 119.993063-111.993525v-424.375466a39.997688 39.997688 0 0 0-39.997687-39.997688zM548.370957 764.007631h-119.993063a39.997688 39.997688 0 0 0 0 79.995375h119.993063a39.997688 39.997688 0 0 0 0-79.995375zM485.974564-127.940803H165.993063a116.393271 116.393271 0 0 0-119.993063 111.993525V732.009481a116.393271 116.393271 0 0 0 119.993063 111.993525h45.597364a39.997688 39.997688 0 0 0 0-79.995375H165.993063a37.197849 37.197849 0 0 1-39.997688-31.99815v-747.556782a37.197849 37.197849 0 0 1 39.997688-31.99815h319.981501a39.997688 39.997688 0 1 0 0-79.995376zM248.388299 446.425991m33.598058 0l279.18386 0q33.598058 0 33.598057-33.598058l0 0q0-33.598058-33.598057-33.598057l-279.18386 0q-33.598058 0-33.598058 33.598057l0 0q0 33.598058 33.598058 33.598058ZM248.388299 282.835449m33.598058 0l154.391074 0q33.598058 0 33.598058-33.598058l0 0q0-33.598058-33.598058-33.598058l-154.391074 0q-33.598058 0-33.598058 33.598058l0 0q0 33.598058 33.598058 33.598058ZM248.388299 610.016533m33.598058 0l400.376853 0q33.598058 0 33.598058-33.598057l0 0q0-33.598058-33.598058-33.598058l-400.376853 0q-33.598058 0-33.598058 33.598058l0 0q0 33.598058 33.598058 33.598057ZM831.154608-127.540827a37.197849 37.197849 0 0 0-27.598404 11.999307 58.396624 58.396624 0 0 1-29.198312 18.398936 31.598173 31.598173 0 0 1-15.599098-6.799607 88.39489 88.39489 0 0 1-13.599214-11.199352 39.997688 39.997688 0 0 0-27.198428-11.59933h-5.599676l-8.799491 2.799838-46.797295 25.998497a36.397896 36.397896 0 0 0-13.999191 44.397434 39.997688 39.997688 0 0 1 3.199816 13.199236 35.197965 35.197965 0 0 1-34.797989 34.797989h-9.199468l-9.199468 5.599676a37.197849 37.197849 0 0 0-12.79926 22.398705 242.385987 242.385987 0 0 0-3.999769 39.997688 241.98601 241.98601 0 0 0 3.999769 39.997687 37.597826 37.597826 0 0 0 12.79926 23.198659l7.199584 5.599676h9.199468a35.597942 35.597942 0 0 1 36.797873 34.797989 39.997688 39.997688 0 0 1-3.199816 13.199237 35.197965 35.197965 0 0 0 11.59933 42.797525l57.996647 30.79822h8.399514a37.597826 37.597826 0 0 0 27.198428-11.59933 57.196693 57.196693 0 0 1 28.798335-17.199005 58.396624 58.396624 0 0 1 29.198312 15.999075 39.997688 39.997688 0 0 0 27.198428 11.199352h5.599676l8.799491-2.799838 47.597248-26.398474a36.397896 36.397896 0 0 0 15.199122-39.997687l-2.399861-6.799607a33.998034 33.998034 0 0 1 0-9.199468 35.197965 35.197965 0 0 1 34.797988-35.197965h8.399514l8.799491-4.799723a35.997919 35.997919 0 0 0 13.999191-23.598636 239.986126 239.986126 0 0 0 3.999769-39.997687 249.585571 249.585571 0 0 0-3.999769-39.997688 37.197849 37.197849 0 0 0-12.79926-22.398705l-7.199584-5.599676h-11.999306a35.597942 35.597942 0 0 1-36.797873-34.797989 39.997688 39.997688 0 0 1 3.199815-13.199236 35.597942 35.597942 0 0 0-11.599329-42.797526l-54.796832-30.398243z m-138.791976 53.596902z m81.99526 30.398242a95.594473 95.594473 0 0 0 59.196578-26.398473l19.598866 11.199352a79.995375 79.995375 0 0 0-2.399861 18.398936 89.194843 89.194843 0 0 0 69.196 86.794983 107.193803 107.193803 0 0 1 0 31.598173 88.794867 88.794867 0 0 0-68.796023 86.395005 82.395237 82.395237 0 0 0 2.399861 18.398936l-19.598867 10.799376a95.194497 95.194497 0 0 0-57.59667-24.398589 95.99445 95.99445 0 0 0-57.996647 25.198543l-21.198774-11.59933a79.995375 79.995375 0 0 0 2.399861-18.398936 88.794867 88.794867 0 0 0-69.196-86.395005 135.192184 135.192184 0 0 1 0-15.599098 137.992022 137.992022 0 0 1 0-15.999075 88.794867 88.794867 0 0 0 68.796023-86.395006 81.99526 81.99526 0 0 0-2.399861-18.798913l18.398936-10.399399 12.79926 9.999422a83.19519 83.19519 0 0 0 46.397318 15.999075z m69.195999 245.985779z m-134.792207 0zM774.757869-23.946816a84.795098 84.795098 0 1 0 84.795097 84.795098A84.795098 84.795098 0 0 0 774.757869-23.946816z m0 115.193341a30.798219 30.798219 0 1 1 30.798219-30.79822 30.798219 30.798219 0 0 1-30.798219 32.398127zM272.786889 706.810937m0 39.997688l0 109.193687q0 39.997688 39.997688 39.997688l0 0q39.997688 0 39.997687-39.997688l0-109.193687q0-39.997688-39.997687-39.997688l0 0q-39.997688 0-39.997688 39.997688ZM623.166633 706.810937m0 39.997688l0 109.193687q0 39.997688 39.997687 39.997688l0 0q39.997688 0 39.997688-39.997688l0-109.193687q0-39.997688-39.997688-39.997688l0 0q-39.997688 0-39.997687 39.997688Z"  horiz-adv-x="1024" />

    
    <glyph glyph-name="bumenguanli" unicode="&#59005;" d="M1305.77267 479.558225a75.061603 75.061603 0 1 1 75.361849-74.761357 75.061603 75.061603 0 0 1-75.361849 74.761357z m0 176.544891a75.061603 75.061603 0 1 1-74.761357 75.061603 75.061603 75.061603 0 0 1 74.761357-75.36185z m0-502.912742a75.061603 75.061603 0 1 1 75.361849-75.061603 75.061603 75.061603 0 0 1-75.361849 75.061603zM1030.746955 712.249195h108.088709a18.765401 18.765401 0 1 1 0 37.530802h-108.088709a130.306943 130.306943 0 0 1-130.006697-129.706451v-196.6614h-201.165097a18.765401 18.765401 0 1 1 0-37.530802h201.165097v-196.661401a130.306943 130.306943 0 0 1 130.306943-130.006697h108.088709a18.765401 18.765401 0 1 1 0 37.530802h-108.088709a92.475895 92.475895 0 0 0-92.776141 92.475895v196.361155h200.86485a18.765401 18.765401 0 1 1 0 37.530801h-200.86485V620.073546a92.475895 92.475895 0 0 0 92.475895 92.175649zM685.163334 215.941874c-70.858154 34.528338-117.096101 60.049283-127.30448 115.294623a322.464648 322.464648 0 0 1 121.599798 260.613886 340.179186 340.179186 0 0 1-69.657168 210.17249 226.385796 226.385796 0 0 1-177.745877 93.977127c-136.612118 0-247.703291-136.912364-247.703291-303.84937a322.464648 322.464648 0 0 1 121.599798-260.613887c-10.208378-55.545586-56.146079-81.066532-125.803247-115.594869-80.766285-38.431541-180.147848-86.470967-180.147848-220.681114v-22.51848l20.116509-10.508625a907.945153 907.945153 0 0 1 411.637833-90.073924 1045.758257 1045.758257 0 0 1 408.935615 90.073924l22.218234 9.908132v23.118973c0.600493 134.210147-98.180577 182.249573-177.745876 220.681114z"  horiz-adv-x="1385" />

    
    <glyph glyph-name="shebeiguanli" unicode="&#60512;" d="M511.68 659.41c-122.04 0-220.98-92.67-220.98-206.98-0.02-27.27 23.57-49.39 52.69-49.41 29.12-0.02 52.73 22.08 52.75 49.35v0.06c0 59.93 51.87 108.52 115.86 108.52s115.86-48.59 115.86-108.52c0-27.27 23.6-49.38 52.72-49.38s52.72 22.11 52.72 49.38c0 114.31-98.94 206.98-220.98 206.98h-0.64zM175.16 403.34c28.94 0 52.4 21.98 52.4 49.08 0.03 146.97 127.26 266.1 284.17 266.07 156.87-0.03 284.03-119.13 284.06-266.07 0-27.27 23.6-49.38 52.72-49.38s52.72 22.11 52.72 49.38C909.9 653.78 742.65 823.59 527.68 831.7S131.42 683.15 122.76 481.8c-0.42-9.79-0.42-19.59 0-29.37 0-27.11 23.46-49.09 52.4-49.09zM869.36 313.3h-310V446.51c0 24.5-21.2 44.35-47.35 44.35-26.15 0-47.35-19.86-47.35-44.35V313.3h-310c-43.59 0-78.92-33.1-78.92-73.92v-229.45c0-40.83 35.33-73.92 78.92-73.92h714.71c43.59 0 78.92 33.1 78.92 73.92V239.38c-0.01 40.82-35.35 73.92-78.93 73.92z m-621.27-233c-26.15 0-47.35 19.86-47.35 44.35 0 24.5 21.2 44.35 47.35 44.35 26.15 0 47.35-19.86 47.35-44.35 0.35-24.49-20.57-44.61-46.72-44.94h-0.64v0.59z m153.42 0c-26.15 0-47.35 19.86-47.35 44.35 0 24.5 21.2 44.35 47.35 44.35s47.35-19.86 47.35-44.35c0.39-24.49-20.5-44.64-46.65-45-1.08-0.01-2.15 0-3.23 0.06l2.53 0.59z"  horiz-adv-x="1024" />

    
    <glyph glyph-name="shangpinjiliangdanwei" unicode="&#58886;" d="M550.06387148 453.09273067V655.14471668h38.78036789V547.9389421999999l45.31839757 51.58774111h47.73657294l-50.06518626-53.46854417 53.64766828-92.87584642H643.6562143l-36.81000277 65.7385451-18.09153422-18.89759267v-46.84095243l-38.69080583-0.08956205z m170.52614424-9.67270146l44.24365296-5.37372304c0.7164964-5.10503688 2.41817536-8.68751889 5.10503689-10.65788401 3.67204408-2.77642358 9.49357736-4.11985433 17.3750378-4.11985433 10.12051171 0 17.733286 1.52255485 22.74876084 4.56766458 3.40335792 2.05992716 6.00065739 5.28416098 7.70233634 9.76226352 1.16430666 3.22423382 1.791241 9.13532916 1.79124101 17.82284805v21.40533007c-11.55350451-15.85248295-26.15211875-23.73394339-43.79584271-23.73394338-19.70365111 0-35.28744791 8.3292707-46.75139039 24.98781211-9.04576711 13.16562143-13.52386962 29.46591463-13.52386964 49.08000369 0 24.54000183 5.91109534 43.25847041 17.73328602 56.24496774 11.82219068 12.98649733 26.51036696 19.43496496 44.06452886 19.43496497 18.09153421 0 33.04839666-7.97102249 44.78102527-23.82350544v20.50970957h36.27263048v-131.38752814c0-17.28547575-1.43299281-30.18241103-4.29897843-38.78036789-2.86598561-8.5083948-6.80671584-15.2255486-12.00131478-20.15146138-5.10503688-4.83635073-12.00131477-8.68751889-20.59927161-11.46394246-8.59795685-2.77642358-19.43496496-4.11985433-32.6005864-4.11985433-24.80868801 0-42.45241195 4.20941638-52.84160983 12.71781119-10.38919786 8.5083948-15.58379681 19.25584085-15.58379678 32.33190024 0 1.34343076 0.08956204 2.86598561 0.1791241 4.74678867z m34.5709515 85.89000647c0-15.49423474 3.04510973-26.86861517 9.0457671-34.12314124 6.00065739-7.2545261 13.43430758-10.83700812 22.3009506-10.83700814 9.49357736 0 17.46459986 3.67204408 24.00262953 11.10569429 6.5380297 7.43365019 9.76226352 18.36022035 9.76226352 32.86927254 0 15.13598654-3.13467177 26.4208049-9.4040153 33.76489306s-14.15080398 11.01613222-23.73394339 11.01613221c-9.31445325 0-16.92722756-3.58248203-22.92788496-10.83700812-6.00065739-7.16496404-9.04576711-18.18109626-9.0457671-32.9588346zM208.56377276 165.41942432999997h35.73525817v-19.97233727c12.80737322 15.49423474 27.94335978 23.28613315 45.58708372 23.28613314 9.40401531 0 17.46459986-1.97036511 24.36087775-5.82153329 6.89627789-3.85116817 12.53868708-9.67270146 16.92722756-17.5541619 6.44846763 7.79189839 13.34474554 13.61343168 20.77839572 17.5541619 7.43365019 3.85116817 15.40467269 5.82153328 23.82350544 5.82153329 10.74744607 0 19.88277522-2.14948921 27.31642542-6.53802969s12.98649733-10.74744607 16.6585414-19.25584087c2.68686151-6.26934353 4.03029227-16.38985525 4.03029228-30.36153514v-93.5923428h-38.78036788v83.6509552c0 14.50905219-1.34343076 23.9130675-4.03029229 28.12248387-3.58248203 5.55284712-9.13532916 8.23970864-16.56897936 8.23970865-5.46328509 0-10.56832197-1.61211691-15.31511063-4.92591278-4.74678868-3.31379588-8.23970864-8.1501466-10.29963581-14.50905218-2.14948921-6.35890559-3.13467177-16.4794173-3.13467176-30.27197309v-70.30620968H297.05107871V99.23306896999998c0 14.24036604-0.7164964 23.46525724-2.05992717 27.58511159-1.34343076 4.11985433-3.49291999 7.2545261-6.44846765 9.22489118-2.86598561 2.05992716-6.80671584 3.04510973-11.82219065 3.04510973-6.00065739 0-11.37438042-1.61211691-16.1211691-4.83635073-4.74678868-3.22423382-8.23970864-7.88146045-10.29963583-13.88211783-2.05992716-6.09021943-3.13467177-16.1211691-3.13467176-30.18241104v-71.11226812H208.38464867l0.17912409 146.34439058z m242.62359492-27.94335977l20.68883367 2.50773741c0.62693436-5.28416098 2.41817536-9.31445325 5.28416099-12.09087682 2.86598561-2.77642358 6.35890559-4.20941638 10.47875992-4.20941638 4.38854048 0 8.1501466 1.70167896 11.10569427 5.01547485 3.04510973 3.31379588 4.47810253 7.88146045 4.47810251 13.52386961 0 5.37372303-1.43299281 9.58313941-4.29897841 12.80737324-2.86598561 3.13467177-6.44846763 4.74678868-10.56832198 4.74678867-2.77642358 0-6.00065739-0.5373723-9.7622635-1.61211691l2.32861331 17.37503781c5.73197124-0.1791241 10.21007376 1.0747446 13.25518348 3.76160613 3.04510973 2.68686151 4.56766458 6.17978149 4.56766459 10.56832195 0 3.76160613-1.0747446 6.71715379-3.31379588 8.95620506s-5.19459895 3.31379588-8.866643 3.31379586c-3.67204408 0-6.80671584-1.25386871-9.31445327-3.76160612-2.59729946-2.5077374-4.11985433-6.26934353-4.74678868-11.10569425l-19.70365111 3.31379585c1.34343076 6.71715379 3.40335792 12.09087682 6.17978149 16.1211691 2.77642358 4.03029227 6.62759174 7.16496404 11.55350452 9.49357737 4.92591278 2.32861331 10.47875993 3.49291999 16.56897935 3.49291996 10.47875993 0 18.89759266-3.31379588 25.25649825-10.03094965 5.19459895-5.46328509 7.79189839-11.64306658 7.7918984-18.53934447 0-9.76226352-5.37372303-17.5541619-16.03160705-23.37569518 6.35890559-1.34343076 11.46394247-4.47810253 15.31511064-9.22489122 3.85116817-4.74678868 5.73197124-10.47875993 5.73197124-17.28547575 0-9.76226352-3.58248203-18.09153421-10.74744607-24.98781209-7.16496404-6.89627789-16.03160705-10.29963583-26.68949105-10.29963582-10.12051171 0-18.44978241 2.86598561-25.07737416 8.6875189-6.5380297 5.91109534-10.38919786 13.52386962-11.46394247 22.83832289zM895.95251068 673.41537499L934.10594421 768.26158652c15.7629209 39.40730225 4.20941638 63.85774205-37.61606123 63.5890559L451.09780564 830.14896346c-36.89956482 3.85116817-54.27460263-25.7043085-39.58642635-62.33518719L449.30656461 673.41537499c-47.28876268-56.692778-62.51431128-86.96475108-62.51431127-164.34636274V461.95937368h30.63022128v46.03489398c0 77.91898397 16.83766549 100.13037251 63.85774206 157.71877099L439.00692881 778.11341208c-2.95554767 7.70233634 2.23905126 22.21138854 10.47875991 22.21138855h446.556384c8.06058456 0 14.32992808-13.79255578 11.37438043-21.31576803l-43.25847042-111.14650473c50.42343445-63.23080769 63.85774205-75.76949476 63.85774204-159.86826021v-386.90805834c0-47.64701089-39.04905403-86.69606492-86.69606492-86.69606494H631.92358568V2.506054400000039h213.06811823c63.05168359 0 114.81854879 51.67730316 114.8185488 114.81854879v394.07302238c0 81.68059011-14.32992808 101.11555506-63.85774203 162.01774942zM635.23738154 425.6867432H64.18974729v-140.43329525h30.27197308v-347.5007561h510.50368811v347.5007561h30.27197306V425.6867432z m-75.05299834-443.06346402H138.97405948V285.16388591h421.21032372v-302.54060673z m31.97365205 340.87316436H107.08996949v63.85774202h485.06806576v-63.85774202z m195.42439426 387.08718244c14.15080398 0 25.88343259 11.55350451 25.88343261 25.88343262V762.35049119H531.97233726v-25.88343259c0-14.15080398 11.55350451-25.88343259 25.88343261-25.88343262h229.72665964z"  horiz-adv-x="1024" />

    
    <glyph glyph-name="fenzu" unicode="&#58898;" d="M1144.470588 175.405176V353.882353h-481.882353V534.588235h240.941177V896H361.411765v-361.411765h240.941176v-180.705882H120.470588v-178.477177H0V-128h301.176471v303.405176H180.705882V293.647059h421.647059v-118.241883H481.882353V-128h301.176471v303.405176h-120.470589V293.647059h421.647059v-118.241883h-120.470588V-128h301.17647v303.405176h-120.470588zM421.647059 835.764706h421.647059v-240.941177H421.647059V835.764706zM240.941176 116.254118V-67.764706H60.235294v184.018824h180.705882zM722.823529 112.941176v-180.705882H542.117647v180.705882h180.705882z m481.882353-180.705882h-180.705882v180.705882h60.235294l60.235294 3.312942L1204.705882 112.941176v-180.705882z"  horiz-adv-x="1264" />

    
    <glyph glyph-name="zidianguanli" unicode="&#58926;" d="M485.551 676.157h-87.005V312.94h87.005c63.387 0 109.806 14.796 138.99 43.841 28.502 29.726 42.755 75.605 42.755 137.77 0 63.656-14.253 110.217-42.755 138.584-29.183 28.911-75.602 43.025-138.99 43.025zM796.65 864.828H227.527c-63.657 0-115.642-51.987-115.642-115.642v-735.399c0-63.656 51.986-115.642 115.642-115.642H796.65c45.47 0 84.968 26.604 103.836 64.881H235.264c-23.754 0-43.297 19.41-43.297 43.296v54.7c0 23.755 19.41 43.297 43.297 43.297h520.399c86.188 0 156.635 70.445 156.635 156.635V749.183c0 63.656-52.12 115.646-115.646 115.646zM688.742 310.09c-42.755-45.199-104.784-67.868-187.445-67.868h-186.09V746.873h186.089c82.66 0 144.69-22.666 187.445-67.866 40.584-42.35 61.352-103.836 61.352-184.46 0-79.947-20.765-141.43-61.35-184.46z"  horiz-adv-x="1024" />

    
    <glyph glyph-name="chanpinfenleishu" unicode="&#58887;" d="M530.06-16.210000000000036V473.06c0 7.73 2.86 15.18 8.03 20.89l202.46 228.58H194.71L397.6 493.79c5.06-5.7 7.83-13.08 7.83-20.77V191.5l70.65-61.45-16.73-22.52-22.28-25.95-82.17 70.81a31.2 31.2 0 0 0-11.52 24.23V461.19L97.18 733v51.97H838.8v-52.08L592.12 461.04v-477.27h-62.06v0.02z m396.76 481.03v-64.03H649.36v64.03h277.46z m0-170.74v-64.03H649.36v64.03h277.46z m0-170.75v-64.03H649.36v64.03h277.46z m0 0"  horiz-adv-x="1024" />

    
    <glyph glyph-name="caidanguanli" unicode="&#59038;" d="M184.533333 18.133333h282.666667c18.133333 0 33.066667-17.066667 33.066667-36.266666s-14.933333-36.266667-33.066667-36.266667H102.4c-19.2 0-34.133333 16-34.133333 36.266667V625.066667H34.133333C14.933333 625.066667 0 641.066667 0 661.333333V859.733333C0 869.333333 3.2 878.933333 9.6 885.333333c6.4 6.4 14.933333 10.666667 24.533333 10.666667h184.533334c19.2 0 34.133333-16 34.133333-36.266667v-197.333333c0-9.6-3.2-19.2-9.6-25.6-6.4-6.4-14.933333-10.666667-24.533333-10.666667h-34.133334v-216.533333h282.666667c19.2 0 34.133333-16 34.133333-36.266667s-14.933333-36.266667-34.133333-36.266666H184.533333v-318.933334zM388.266667 859.733333c0 9.6 3.2 19.2 9.6 25.6 6.4 6.4 14.933333 10.666667 24.533333 10.666667h567.466667C1009.066667 896 1024 880 1024 859.733333v-197.333333c0-9.6-3.2-19.2-9.6-25.6-6.4-6.4-14.933333-10.666667-24.533333-10.666667H422.4c-8.533333 0-18.133333 4.266667-24.533333 10.666667-6.4 6.4-9.6 16-9.6 25.6V859.733333z m248.533333-414.933333c0 9.6 3.2 19.2 9.6 25.6 6.4 6.4 14.933333 10.666667 24.533333 10.666667h317.866667c19.2 0 34.133333-16 34.133333-36.266667V298.666667c0-20.266667-14.933333-36.266667-34.133333-36.266667H672c-8.533333 0-18.133333 4.266667-24.533333 10.666667-6.4 6.4-9.6 16-9.6 25.6-1.066667 0-1.066667 146.133333-1.066667 146.133333z m0-390.4c0 9.6 3.2 19.2 9.6 25.6 6.4 6.4 14.933333 10.666667 24.533333 10.666667h317.866667c19.2 0 34.133333-16 34.133333-36.266667v-146.133333c0-20.266667-14.933333-36.266667-34.133333-36.266667H672c-8.533333 0-18.133333 4.266667-24.533333 10.666667-6.4 6.4-9.6 16-9.6 25.6V54.4h-1.066667z"  horiz-adv-x="1024" />

    
    <glyph glyph-name="zaixiantiaoshi" unicode="&#58903;" d="M612.498286 133.412571v-113.444571h253.878857a42.569143 42.569143 0 0 0 0-85.138286H264.923429a42.569143 42.569143 0 0 0 0 85.138286h253.952v113.444571H165.156571A113.956571 113.956571 0 0 0 50.761143 246.930286V757.613714c0 62.683429 51.2 113.444571 114.395428 113.444572H966.217143c63.268571 0 114.468571-50.761143 114.468571-113.444572v-510.683428c0-62.683429-51.2-113.517714-114.468571-113.517715H612.498286zM197.046857 424.96H362.057143l35.254857-87.917714c9.508571-23.771429 43.446857-23.917714 53.101714-0.146286l111.835429 275.017143 81.773714-170.788572a28.598857 28.598857 0 0 1 25.819429-16.164571h277.723428a28.525714 28.525714 0 0 1 28.672 28.379429 28.525714 28.525714 0 0 1-28.672 28.306285h-259.657143L585.874286 694.710857a28.672 28.672 0 0 1-52.370286-1.462857L424.009143 423.789714l-16.018286 39.936a28.598857 28.598857 0 0 1-26.550857 17.846857h-184.32a28.525714 28.525714 0 0 1-28.598857-28.306285 28.525714 28.525714 0 0 1 28.525714-28.379429z"  horiz-adv-x="1097" />

    
    <glyph glyph-name="shebei1" unicode="&#58932;" d="M328.3 498.9c0-16.6 13.4-30 30-30s30 13.4 30 30c0 70.1 57 127.1 127 127.1s127-57 127-127.1c0-16.6 13.4-30 30-30s30 13.4 30 30c0 103.2-83.9 187.1-187 187.1s-187-83.9-187-187.1zM212.5 468.9c16.6 0 30 13.4 30 30 0 150.5 122.4 273 272.8 273s272.8-122.4 272.8-273c0-16.6 13.4-30 30-30s30 13.4 30 30c0 44.9-8.8 88.6-26.2 129.6-16.8 39.7-40.8 75.3-71.3 105.8C720 765 684.4 789 644.8 805.7c-41 17.4-84.6 26.2-129.5 26.2-44.9 0-88.5-8.8-129.5-26.2C346.1 789 310.5 765 280 734.4c-30.5-30.6-54.5-66.2-71.3-105.8-17.4-41.1-26.2-84.7-26.2-129.6 0-16.7 13.4-30.1 30-30.1zM869.8 352.2h-328v170c0 16.6-13.4 30-30 30s-30-13.4-30-30v-169.9h-328c-49.6 0-90-40.4-90-90.1V26c0-49.7 40.4-90.1 90-90.1h716c49.6 0 90 40.4 90 90.1V262.2c0 49.6-40.3 90-90 90zM235 99c-24.9 0-45 20.1-45 45s20.1 45 45 45 45-20.1 45-45-20.1-45-45-45z m149 0c-24.9 0-45 20.1-45 45s20.1 45 45 45 45-20.1 45-45-20.1-45-45-45z"  horiz-adv-x="1024" />

    
    <glyph glyph-name="ZM-disanfangshebei" unicode="&#59218;" d="M319.6928 476.1856a192.3072 192.3072 0 1 1 384.6144 0A192.256 192.256 0 0 1 512 668.4672a192.2816 192.2816 0 0 1-192.3072-192.2816z m364.9792-0.0256a172.6976 172.6976 0 1 0-345.3952 0.0512 172.6976 172.6976 0 0 0 345.3952-0.0512zM512 601.7024m-16.7424 0a16.7424 16.7424 0 1 1 33.4848 0 16.7424 16.7424 0 1 1-33.4848 0ZM403.1488 384m-16.7424 0a16.7424 16.7424 0 1 1 33.4848 0 16.7424 16.7424 0 1 1-33.4848 0ZM620.8512 387.2m-16.7424 0a16.7424 16.7424 0 1 1 33.4848 0 16.7424 16.7424 0 1 1-33.4848 0ZM518.1952 581.1712l88.7808-177.5616a20.9152 20.9152 0 0 0 6.2208 3.7888l-88.5248 177.024a22.016 22.016 0 0 0-6.4768-3.2512zM599.1168 387.6352H424.192c0.2304-1.2288 0.768-2.3552 0.768-3.6352 0-1.3056-0.5376-2.4064-0.7424-3.6352h176.2048a21.6576 21.6576 0 0 0-1.3824 6.8352c0 0.1536 0.0768 0.2816 0.0768 0.4352zM505.7792 581.1712a21.1712 21.1712 0 0 0-6.4768 3.2768l-89.9584-179.9424a20.6592 20.6592 0 0 0 6.4768-3.3024l89.9584 179.968zM873.216 265.8048H132.5568v137.8048H70.1952v-200.7552a63.5904 63.5904 0 0 1 62.3872-62.4128h307.9424v-62.3872h-164.8384A31.488 31.488 0 0 1 244.224 46.592v-5.76c0-17.3568 14.08-31.4624 31.4624-31.4624h455.04c17.408 0 31.488 14.1056 31.488 31.4624v5.76a31.488 31.488 0 0 1-31.488 31.4624h-167.7056v62.3872H870.912a63.5648 63.5648 0 0 1 62.4128 62.9504v200.192h-60.8256l0.7168-137.7792z m-370.3296-92.7232h-0.5632a30.336 30.336 0 0 0-29.184 30.336h-0.5632a30.336 30.336 0 1 0 30.3104-30.336zM132.5568 696.2176H870.912l0.7936-147.4816h61.5936V696.2176a60.672 60.672 0 0 1-58.9056 62.3616l-1.1776 0.0256H132.5568a62.8992 62.8992 0 0 1-62.3616-61.7984v-148.0704h62.3872V696.2176zM824.448 494.0288v42.2656l-74.1376-60.416 74.1376-60.3904v42.2656h108.8768v36.2752zM179.0976 415.7696L253.2352 476.16l-74.1376 60.3904v-42.24H70.1952v-36.3008h108.9024z"  horiz-adv-x="1024" />

    
    <glyph glyph-name="lingpaiguanli" unicode="&#59079;" d="M501.737527-125.678933a720.816425 720.816425 0 0 0-181.323387 94.019534c-72.401437 51.486887-133.16236 114.486371-176.654389 188.039067C104.29713 223.088766 81.016103 323.951898 70.526849 450.334619a2165.647218 2165.647218 0 0 0-1.918766 302.077726 31.979433 31.979433 0 0 0 33.130693 29.996708c9.849665-0.383753 17.780565-0.511671 34.026117-0.511671 21.746015 0 47.009767 0.831465 75.151668 2.366478 69.715164 3.837532 135.592797 24.688122 201.854182 58.906116 23.025192 11.896349 39.846374 21.746015 70.290795 40.613881l12.216143 7.547146a31.979433 31.979433 0 0 0 33.322569 0l12.280103-7.547146c21.618097-13.431362 33.130693-20.274961 48.544779-28.909408 20.914549-11.704473 41.509304-22.00185 62.67969-31.084009 52.766065-22.705398 105.979842-36.456554 160.856549-39.52658 28.141901-1.535013 53.469612-2.366478 75.151668-2.366478 16.309511 0 24.24041 0.127918 34.090076 0.511671a31.979433 31.979433 0 0 0 33.130692-30.060667 2165.391383 2165.391383 0 0 0-1.918766-302.013767c-10.489254-126.318761-33.770281-227.245853-73.232902-293.954951-43.492029-73.552696-104.38087-136.616139-176.910224-188.166985a719.98496 719.98496 0 0 0-181.067551-93.891616 31.979433 31.979433 0 0 0-20.466837 0zM666.111813 20.403118c65.685756 46.689973 120.370587 103.293569 158.937783 168.595572 33.386528 56.41172 54.812749 149.152077 64.598456 266.708473a2072.906862 2072.906862 0 0 1 3.453778 262.295312h-5.05275c-22.961233 0-49.376245 0.831465-78.669406 2.430437-62.935525 3.517738-123.376653 19.18766-182.602564 44.643288a734.439663 734.439663 0 0 0-68.627863 34.026117c-15.286169 8.506529-26.798765 15.414087-46.242261 27.438354a968.976827 968.976827 0 0 0-69.843082-40.102209c-73.616655-38.055526-147.872899-61.592388-227.693564-66.00555a1458.837785 1458.837785 0 0 0-83.658198-2.430437 2073.03478 2073.03478 0 0 1 3.453779-262.295312c9.785707-117.556397 31.211927-210.296753 64.598455-266.708473 38.631155-65.365962 93.188068-121.905599 158.617989-168.467654 50.20771-35.689047 104.828582-63.958866 154.524621-81.931308 49.376245 17.908483 104.061076 46.114343 154.204827 81.867349zM543.950378 160.473036a31.979433 31.979433 0 1 1-63.958866 0 31.979433 31.979433 0 0 1 63.958866 0z m0 447.712065a31.979433 31.979433 0 0 1-63.958866 0v-319.794332a31.979433 31.979433 0 0 1 63.958866 0v319.794332z"  horiz-adv-x="1024" />

    
    <glyph glyph-name="yonghuguanli" unicode="&#58927;" d="M628.662857 769.828571C663.478857 803.181714 707.876571 822.857143 755.565714 822.857143h24.868572c108.251429 0 199.68-101.302857 199.68-234.569143 0-104.594286-35.108571-154.038857-77.019429-203.190857-27.940571-32.768-32.914286-38.4-14.774857-17.042286-6.802286-7.899429-13.677714-15.945143-20.553143-24.283428 10.459429-3.072 20.553143-5.924571 30.427429-8.557715-51.931429 12.946286-44.763429 11.044571 21.796571-5.632 99.84-25.088 168.740571-32.841143 219.428572-87.04 48.420571-62.025143 33.133714-162.377143 0-162.377143H1007.177143c-3.437714 5.997714-7.314286 11.702857-11.629714 17.261715-59.977143 64.146286-141.458286 73.216-259.364572 102.912-78.628571 19.748571-87.259429 21.942857-25.746286 6.582857-11.702857 3.145143-23.625143 6.582857-35.986285 10.166857 8.045714 9.874286 16.237714 19.382857 24.283428 28.672-21.357714-25.234286-15.579429-18.505143 17.481143 20.187429 49.517714 58.075429 90.989714 116.516571 90.989714 240.128 0 126.317714-95.524571 228.278857-178.468571 263.753142zM374.052571 199.606857a141.165714 141.165714 0 0 0 22.454858 42.934857c3.657143 3.803429 7.314286 7.387429 11.044571 10.825143 23.259429-27.282286 25.526857-29.842286 6.656-7.606857 8.045714-9.289143 16.237714-18.797714 24.356571-28.672-12.361143-3.657143-24.356571-7.021714-35.986285-10.093714a3137.243429 3137.243429 0 0 0-28.525715-7.387429zM321.536 173.348571c11.702857 3.145143 23.625143 6.582857 35.986286 10.166858a1412.608 1412.608 0 0 1-24.356572 28.672c21.430857-25.234286 15.652571-18.505143-17.408 20.187428C266.24 290.450286 224.768 348.891429 224.768 472.502857 224.768 629.979429 332.726857 749.714286 460.726857 749.714286H490.057143c128 0 235.958857-119.734857 235.958857-277.211429 0-123.611429-41.472-182.125714-90.989714-240.128-33.060571-38.765714-38.838857-45.421714-17.408-20.187428-8.045714-9.289143-16.237714-18.797714-24.356572-28.672 12.361143-3.657143 24.356571-7.021714 35.986286-10.093715-61.44 15.36-52.882286 13.092571 25.746286-6.656 117.979429-29.696 199.387429-38.765714 259.364571-102.912 57.124571-73.289143 39.131429-191.853714 0-191.853714H36.425143c-39.131429 0-57.124571 118.564571 0 191.853714 59.977143 64.146286 141.385143 73.216 259.364571 102.912 78.628571 19.748571 87.259429 21.942857 25.746286 6.582857z"  horiz-adv-x="1170" />

    
    <glyph glyph-name="iotidIOTshebeishenfenrenzheng" unicode="&#58890;" d="M132.267 597.333c14.933 0 27.733 12.8 27.733 27.734V738.133v-12.8s0 12.8 12.8 12.8h98.133c14.934 0 27.734 12.8 27.734 27.734s-12.8 27.733-27.734 27.733H132.267c-14.934 0-27.734-12.8-27.734-27.733V627.2c0-17.067 12.8-29.867 27.734-29.867z m755.2 194.134H748.8c-14.933 0-27.733-12.8-27.733-27.734S733.867 736 748.8 736h100.267c12.8 0 12.8-12.8 12.8-12.8v14.933-113.066c0-14.934 12.8-27.734 27.733-27.734s27.733 12.8 27.733 27.734V763.733c-2.133 14.934-14.933 27.734-29.866 27.734zM270.933 34.133H172.8c-12.8 0-12.8 12.8-12.8 12.8v-12.8V147.2c0 14.933-12.8 27.733-27.733 27.733s-27.734-12.8-27.734-27.733V0c2.134 0 2.134-2.133 2.134-2.133 4.266-10.667 12.8-17.067 25.6-17.067h138.666c14.934 0 27.734 12.8 27.734 27.733 0 14.934-12.8 25.6-27.734 25.6z m616.534 140.8c-14.934 0-27.734-12.8-27.734-27.733v-113.067 12.8s0-12.8-12.8-12.8H746.667c-14.934 0-27.734-12.8-27.734-27.733s12.8-27.733 27.734-27.733h138.666c14.934 0 27.734 12.8 27.734 27.733V145.067c2.133 17.066-10.667 29.866-25.6 29.866z m-328.534 281.6l-83.2-83.2-8.533 8.534c-12.8 12.8-32 12.8-42.667 0-12.8-12.8-12.8-32 0-42.667l29.867-29.867c12.8-12.8 32-12.8 42.667 0L601.6 413.867c12.8 12.8 12.8 32 0 42.666-10.667 10.667-29.867 10.667-42.667 0zM733.867 247.467h61.866c14.934 0 25.6 12.8 25.6 25.6 0 14.933-12.8 25.6-25.6 25.6h-61.866v57.6h61.866c14.934 0 25.6 12.8 25.6 25.6 0 14.933-12.8 25.6-25.6 25.6h-61.866v61.866h61.866c14.934 0 25.6 12.8 25.6 25.6 0 14.934-12.8 25.6-25.6 25.6h-61.866v25.6c0 34.134-27.734 64-64 64h-25.6V672c0 14.933-12.8 25.6-25.6 25.6-14.934 0-25.6-12.8-25.6-25.6v-61.867h-57.6V672c0 14.933-12.8 25.6-25.6 25.6-14.934 0-25.6-12.8-25.6-25.6v-61.867h-57.6V672c0 14.933-12.8 25.6-25.6 25.6-14.934 0-25.6-12.8-25.6-25.6v-61.867h-25.6c-34.134 0-64-27.733-64-64v-25.6h-64C204.8 522.667 192 512 192 497.067s12.8-25.6 25.6-25.6h64v-57.6h-64c-14.933 0-25.6-12.8-25.6-25.6 0-14.934 12.8-25.6 25.6-25.6h64v-57.6h-64c-14.933 0-25.6-12.8-25.6-25.6 0-14.934 12.8-25.6 25.6-25.6h64v-25.6c0-34.134 27.733-64 64-64h25.6V102.4c0-14.933 12.8-25.6 25.6-25.6 14.933 0 25.6 12.8 25.6 25.6v61.867H480V102.4c0-14.933 12.8-25.6 25.6-25.6 14.933 0 25.6 12.8 25.6 25.6v61.867h57.6V102.4c0-14.933 12.8-25.6 25.6-25.6 14.933 0 25.6 12.8 25.6 25.6v61.867h25.6c34.133 0 64 27.733 64 64v19.2h4.267zM693.333 224c0-12.8-10.666-23.467-23.466-23.467H345.6c-12.8 0-23.467 10.667-23.467 23.467V548.267c0 12.8 10.667 23.466 23.467 23.466h324.267c12.8 0 23.466-10.666 23.466-23.466V224zM622.933 544h-230.4c-23.466 0-42.666-19.2-42.666-42.667V268.8c0-23.467 19.2-42.667 42.666-42.667h232.534c23.466 0 42.666 19.2 42.666 42.667V501.333C665.6 524.8 646.4 544 622.933 544z m2.134-275.2l-232.534-2.133s-2.133 0-2.133 2.133V501.333s0 2.134 2.133 2.134h232.534s2.133 0 2.133-2.134V268.8h-2.133z"  horiz-adv-x="1024" />

    
    <glyph glyph-name="right-fill" unicode="&#59041;" d="M261.926-4.663999999999987c0-45.217 60.383-74.14 95.029-39.496L746.223 345.08000000000004c22.32 22.331 22.32 55.531 0 77.853L356.966 812.19c-33.775 33.765-95.028 7.435-95.028-38.931l-0.012-777.923z"  horiz-adv-x="1024" />

    
    <glyph glyph-name="home" unicode="&#58882;" d="M947 411.9L530.7 820.1c-12.6 12.4-32.8 12.3-45.3-0.2L73.5 408c-13.4-13.4-13.2-35.1 0.3-48.3l23.9-23.3c13.3-13 34.5-12.9 47.7 0.2l343 341.4c10.8 10.7 28.2 10.7 39 0l343.2-341.6c13.1-13 34.1-13.2 47.4-0.5l28.6 27.3c14 13.1 14.1 35.2 0.4 48.7zM814.3 794.4c0 13.5-10.9 24.4-24.4 24.4H701c-13.5 0-24.4-10.9-24.4-24.4v-49.9l137.8-137.8V794.4zM492.4 615.6l-343.5-339v-305.1c0-19.7 16-35.7 35.7-35.7h167.9c19.7 0 35.7 16 35.7 35.7V217.9c0 10.4 8.5 18.9 18.9 18.9h203.3c10.4 0 18.9-8.5 18.9-18.9v-246.3c0-19.7 16-35.7 35.7-35.7h166c19.7 0 35.7 16 35.7 35.7V276.7l-338.1 339c-9.8 10-26.1 10-36.2-0.1z"  horiz-adv-x="1024" />

    
    <glyph glyph-name="yiwenshuoming" unicode="&#59027;" d="M512-128a512 512 0 1 0 512 512 512 512 0 0 0-512-512z m0 960a448 448 0 1 1 448-448A448 448 0 0 1 512 832zM636.8 610.56A136.32 136.32 0 0 0 680.96 504a146.88 146.88 0 0 0-27.52-90.88 726.72 726.72 0 0 0-64-58.24 130.56 130.56 0 0 1-32-38.08 101.76 101.76 0 0 1-11.84-49.92v-12.8h-78.08v12.8a157.12 157.12 0 0 0 14.08 70.72 408 408 0 0 0 85.12 92.48l12.8 14.08a88 88 0 0 1 20.16 54.4 85.76 85.76 0 0 1-21.76 61.12 84.8 84.8 0 0 1-64 22.4 83.52 83.52 0 0 1-73.28-32 126.08 126.08 0 0 1-20.16-76.8h-77.44a171.84 171.84 0 0 0 47.68 128 173.12 173.12 0 0 0 128 47.68 168.64 168.64 0 0 0 118.08-38.4z m-90.24-411.84A48.96 48.96 0 0 0 562.24 160a52.8 52.8 0 0 0-15.68-38.72 58.56 58.56 0 0 0-39.68-15.04A54.72 54.72 0 0 0 452.8 160a47.68 47.68 0 0 0 16.32 38.08 49.92 49.92 0 0 0 38.08 15.04 53.44 53.44 0 0 0 39.36-14.4z"  horiz-adv-x="1024" />

    
    <glyph glyph-name="shebeishuliang" unicode="&#59260;" d="M921.251035 594.882478 102.748965 594.882478c-33.797764 0-61.292783-27.393281-61.292783-61.06387l0-600.759825c0-33.67059 27.49502-61.058783 61.292783-61.058783l818.502069 0c33.80285 0 61.292783 27.388194 61.292783 61.058783L982.543818 533.818608C982.543818 567.489198 955.053885 594.882478 921.251035 594.882478zM907.053329 519.391989l0-248.208049L116.941584 271.18394 116.941584 519.391989 907.053329 519.391989zM116.941584-52.509511l0 248.208049L907.053329 195.698538l0-248.208049L116.941584-52.509511zM168.945578 669.528532l674.363052 0c20.85145 0 37.745245 16.893795 37.745245 37.745245 0 20.846363-16.893795 37.740158-37.745245 37.740158L168.945578 745.013934c-20.846363 0-37.745245-16.893795-37.745245-37.740158C131.200334 686.422327 148.099216 669.528532 168.945578 669.528532zM292.238233 820.504424l427.777744 0c20.85145 0 37.745245 16.898882 37.745245 37.745245s-16.893795 37.745245-37.745245 37.745245L292.238233 895.994913c-20.846363 0-37.740158-16.898882-37.740158-37.745245S271.39187 820.504424 292.238233 820.504424zM625.434125 355.373132l154.17559 0c21.288928 0 38.53881 17.275317 38.53881 38.548984s-17.265143 38.53881-38.53881 38.53881l-154.17559 0c-21.273668 0-38.528637-17.27023-38.528637-38.53881C586.905489 372.643361 604.170632 355.373132 625.434125 355.373132zM779.604628 120.442049l-150.980979 0-3.194611 0L474.458234 120.442049c-21.268581 0-38.528637-17.27023-38.528637-38.53881 0-21.278754 17.27023-38.548984 38.528637-38.548984l150.975892 0 3.194611 0 150.980979 0c21.288928 0 38.53881 17.280404 38.53881 38.548984C818.148525 103.176906 800.883382 120.442049 779.604628 120.442049z"  horiz-adv-x="1024" />

    
    <glyph glyph-name="lishijilu" unicode="&#58943;" d="M959.825022 704.060283C959.825022 774.7521 902.517291 832.059831 831.825474 832.059831H191.939717C121.2479 832.059831 63.940169 774.7521 63.940169 704.060283v-639.885757C63.940169-6.517291 121.2479-63.825022 191.939717-63.825022h639.885757c70.691817 0 127.999548 57.307731 127.999548 127.999548V704.060283z m-63.940168-640.059154A63.835408 63.835408 0 0 0 831.912173 0.115146H192.087827c-17.112123 0-33.270563 6.574639-45.372232 18.67631S127.880338 46.889006 127.880338 64.001129V703.998871A64.236389 64.236389 0 0 0 192.087827 768.119662h639.824346A64.037705 64.037705 0 0 0 895.884854 703.998871v-639.997742zM511.998194 703.998871c-176.73135 0-320.000677-143.269328-320.000678-320.000677s143.269328-320.000677 320.000678-320.000678 320.000677 143.269328 320.000677 320.000678-143.269328 320.000677-320.000677 320.000677z m256.060508-320.000677a254.568571 254.568571 0 0 0-43.710511-143.121218 256.988905 256.988905 0 0 0-112.708094-92.83968 255.641465 255.641465 0 0 0-242.755896 23.596451 256.992518 256.992518 0 0 0-92.839681 112.708094 255.641465 255.641465 0 0 0 23.596452 242.755896 256.992518 256.992518 0 0 0 112.708094 92.83968 255.641465 255.641465 0 0 0 242.755896-23.596451 256.988905 256.988905 0 0 0 92.83968-112.708094 254.395174 254.395174 0 0 0 20.11406-99.631066zM544.033302 397.35338V544.148449a31.970084 31.970084 0 0 1-63.940169 0v-160.031045a31.970084 31.970084 0 0 1 9.356217-22.595805L617.365812 233.478701a31.970084 31.970084 0 1 1 45.231348 45.195223z"  horiz-adv-x="1024" />

    
    </font>
</defs>
</svg>
